<?xml version="1.0" standalone="no"?>
<!DOCTYPE svg PUBLIC "-//W3C//DTD SVG 1.1//EN" "http://www.w3.org/Graphics/SVG/1.1/DTD/svg11.dtd">
<svg xmlns="http://www.w3.org/2000/svg">
<defs >
<font id="DroidSerif" horiz-adv-x="1186" ><font-face
    font-family="Droid Serif"
    units-per-em="2048"
    panose-1="2 2 8 0 6 5 0 2 2 0"
    ascent="1907"
    descent="-492"
    alphabetic="0" />
<glyph unicode=" " glyph-name="space" horiz-adv-x="532" />
<glyph unicode="!" glyph-name="exclam" horiz-adv-x="782" d="M213 1462H569L449 467H334L213 1462ZM225 147Q225 194 238 225T273 276T327 303T393 311Q427 311 457 303T511 276T547 226T561 147Q561 101 548 70T511 20T458 -7T393 -16Q358 -16 327 -8T274 20T238
70T225 147Z" />
<glyph unicode="&quot;" glyph-name="quotedbl" horiz-adv-x="1040" d="M584 1462H903L831 899H696L584 1462ZM137 1462H457L365 899H229L137 1462Z" />
<glyph unicode="#" glyph-name="numbersign" horiz-adv-x="1145" d="M1022 551V410H766L690 0H545L621 410H408L330 0H184L262 410H57V551H289L360 922H123V1065H387L459 1462H606L532 1065H745L821 1462H967L891 1065H1087V922H864L795 551H1022ZM434 551H649L721
922H506L434 551Z" />
<glyph unicode="$" glyph-name="dollar" horiz-adv-x="1145" d="M639 1556V1401Q730 1398 796 1381T905 1337T968 1273T989 1196Q989 1131 933 1089T764 1047Q764 1077 757 1112T735 1179T697 1238T639 1280V881Q645 878 662 872T690 860Q784 823 851 784T960
699T1022 600T1042 481Q1042 403 1015 337T936 219T809 136T639 92V-162H524V88Q407 91 326 118T195 186T122 277T100 375Q100 420 116 451T160 501T221 530T293 539Q293 462 309 402T356 300T429 231T524 197V639L489 653Q391 693 326 734T220 821T162 922T145
1042Q145 1116 173 1177T251 1285T370 1360T524 1399V1556H639ZM799 389Q799 454 759 500T639 588V201Q716 218 757 269T799 389ZM385 1128Q385 1101 391 1076T413 1028T456 982T524 936V1290Q464 1279 425 1239T385 1128Z" />
<glyph unicode="%" glyph-name="percent" horiz-adv-x="1855" d="M807 1030Q807 927 784 843T716 699T601 606T438 573Q341 573 271 606T157 699T91 843T70 1030Q70 1133 91 1216T157 1359T272 1451T440 1483Q532 1483 601 1451T716 1360T784 1217T807 1030ZM301
1030Q301 946 308 881T332 770T374 700T438 676Q477 676 502 700T544 769T566 880T573 1030Q573 1112 567 1176T545 1286T504 1354T440 1378Q402 1378 376 1355T333 1286T309 1177T301 1030ZM651 0H492L1198 1462H1356L651 0ZM1786 436Q1786 333 1763 249T1695
105T1580 13T1417 -20Q1320 -20 1250 12T1136 105T1070 249T1049 436Q1049 539 1070 622T1136 765T1251 857T1419 889Q1511 889 1580 857T1695 766T1763 623T1786 436ZM1280 436Q1280 352 1287 287T1311 176T1353 106T1417 82Q1456 82 1481 106T1523 175T1545 286T1552
436Q1552 518 1546 582T1524 692T1483 760T1419 784Q1381 784 1355 761T1312 692T1288 583T1280 436Z" />
<glyph unicode="&amp;" glyph-name="ampersand" horiz-adv-x="1640" d="M1208 0L1067 150Q1029 112 983 81T880 28T759 -7T616 -20Q490 -20 393 9T230 95T130 232T96 416Q96 506 124 569T201 679T312 758T446 819Q406 867 377 910T328 997T300 1085T291 1182Q291
1250 317 1305T394 1400T523 1461T702 1483Q801 1483 874 1460T996 1397T1069 1304T1094 1192Q1094 1130 1075 1080T1018 988T921 908T782 834Q787 826 797 819L1087 514Q1100 585 1104 654T1108 782V872H1556V764H1524Q1490 764 1458 760T1397 742T1348 700T1313
625Q1297 568 1276 504T1223 373L1427 160Q1456 129 1498 119T1595 109H1614V0H1208ZM397 406Q397 345 416 293T471 201T556 140T668 117Q777 117 852 152T977 248L539 715Q496 684 469 650T425 577T403 496T397 406ZM846 1190Q846 1226 840 1257T817 1311T773
1347T702 1360Q668 1360 643 1347T601 1311T577 1257T569 1188Q569 1153 577 1121T600 1058T640 994T696 926Q739 950 768 977T814 1035T838 1105T846 1190Z" />
<glyph unicode="&apos;" glyph-name="quotesingle" horiz-adv-x="594" d="M137 1462H457L365 899H229L137 1462Z" />
<glyph unicode="(" glyph-name="parenleft" horiz-adv-x="819" d="M446 651Q446 529 458 412T505 190T599 -3T754 -154V-285Q583 -216 462 -124T265 86T153 344T117 651Q117 816 152 956T264 1213T462 1421T754 1581V1452Q659 1389 599 1302T505 1110T459 890T446 651Z" />
<glyph unicode=")" glyph-name="parenright" horiz-adv-x="819" d="M373 651Q373 773 361 889T315 1110T221 1301T66 1452V1581Q237 1513 358 1421T555 1213T667 957T702 651Q702 485 667 344T556 86T358 -123T66 -285V-154Q161 -91 221 -3T314 189T360 411T373 651Z" />
<glyph unicode="*" glyph-name="asterisk" horiz-adv-x="1028" d="M72 1237L164 1444L469 1223L401 1556H631L557 1227L864 1440L956 1235L637 1155L956 1073L864 870L557 1083L629 752H401L467 1085L164 868L72 1071L391 1155L72 1237Z" />
<glyph unicode="+" glyph-name="plus" horiz-adv-x="1145" d="M645 659V293H498V659H133V805H498V1171H645V805H1012V659H645Z" />
<glyph unicode="," glyph-name="comma" horiz-adv-x="602" d="M459 86Q459 21 439 -40T375 -153T262 -246T92 -315V-209Q137 -193 170 -177T226 -143T260 -102T272 -49Q272 -30 261 -18T234 6T198 28T162 58T134 102T123 170Q123 239 165 275T270 311Q357 311
408 251T459 86Z" />
<glyph unicode="-" glyph-name="hyphen" horiz-adv-x="635" d="M51 451V666H584V451H51Z" />
<glyph unicode="." glyph-name="period" horiz-adv-x="623" d="M143 147Q143 194 156 225T191 276T245 303T311 311Q345 311 375 303T429 276T465 226T479 147Q479 101 466 70T429 20T376 -7T311 -16Q276 -16 245 -8T192 20T156 70T143 147Z" />
<glyph unicode="/" glyph-name="slash" horiz-adv-x="590" d="M147 -250L0 -248L446 1556H590L147 -250Z" />
<glyph unicode="0" glyph-name="zero" horiz-adv-x="1145" d="M1075 733Q1075 564 1047 425T958 187T802 34T573 -20Q433 -20 337 34T182 187T96 425T70 735Q70 905 96 1043T181 1279T337 1430T575 1483Q708 1483 803 1430T958 1279T1047 1043T1075 733ZM387 733Q387
586 395 471T423 277T480 155T573 113Q630 113 666 155T722 276T750 471T758 733Q758 880 751 994T723 1188T667 1308T575 1350Q518 1350 482 1309T424 1188T395 995T387 733Z" />
<glyph unicode="1" glyph-name="one" horiz-adv-x="1145" d="M199 0V109H367Q393 109 412 115T444 137T463 177T469 242V1268Q430 1220 396 1181T329 1114T267 1071T205 1055Q180 1055 159 1065T121 1096T96 1144T86 1206Q117 1214 151 1225T223 1255T306 1300T401
1364L545 1470H774V242Q774 210 778 185T794 143T826 118T879 109H1044V0H199Z" />
<glyph unicode="2" glyph-name="two" horiz-adv-x="1145" d="M999 1143Q999 1095 989 1050T954 957T889 856T790 738T653 595T471 420L266 225H743Q806 225 850 261T913 367L930 430H1051L1040 0H72V211L375 520Q470 617 531 695T627 844T676 984T690 1133Q690
1250 648 1304T530 1358Q426 1358 384 1269T342 1004Q284 1004 236 1015T153 1050T99 1112T80 1206Q80 1262 108 1312T193 1400T333 1460T530 1483Q645 1483 732 1460T879 1392T969 1285T999 1143Z" />
<glyph unicode="3" glyph-name="three" horiz-adv-x="1145" d="M498 -20Q382 -20 299 0T162 54T83 132T57 225Q57 264 71 294T109 344T164 375T231 385Q231 320 249 271T301 189T380 140T483 123Q533 123 578 137T659 185T714 277T735 424Q735 483 715 532T654
616T554 672T418 692H291V819H426Q492 819 541 840T622 902T670 997T686 1120Q686 1232 643 1295T516 1358Q461 1358 427 1331T373 1259T347 1157T340 1040Q212 1040 143 1084T74 1223Q74 1277 102 1324T188 1407T329 1463T526 1483Q635 1483 722 1461T871 1396T966
1291T999 1149Q999 1080 975 1022T909 918T810 838T686 780Q748 769 812 745T930 678T1017 573T1051 422Q1051 297 1005 212T881 76T704 2T498 -20Z" />
<glyph unicode="4" glyph-name="four" horiz-adv-x="1145" d="M893 381V256Q893 208 906 179T942 135T996 114T1061 109H1087V0H369V109H426Q461 109 491 114T544 134T580 179T594 256V381H27V506L608 1462H893V516H1106V381H893ZM594 874Q594 964 597 1068T608
1268Q598 1244 576 1202T529 1116T481 1032T446 973L170 516H594V874Z" />
<glyph unicode="5" glyph-name="five" horiz-adv-x="1145" d="M471 123Q522 123 567 139T647 192T702 293T723 451Q723 604 650 679T444 754Q405 754 374 751T315 743T264 731T217 717L123 754L188 1462H963L973 1090H856L840 1159Q835 1177 829 1191T813 1216T786
1231T745 1237H319Q319 1236 318 1220T314 1176T309 1115T303 1046L287 858Q303 864 328 869T384 879T447 886T512 889Q631 889 727 862T892 780T998 643T1036 451Q1036 318 988 228T862 82T690 4T502 -20Q387 -20 307 0T177 55T105 134T82 227Q82 299 126 334T246
369Q246 325 257 281T295 202T365 145T471 123Z" />
<glyph unicode="6" glyph-name="six" horiz-adv-x="1145" d="M657 1362Q597 1362 549 1326T465 1221T408 1052T381 821Q402 835 429 848T490 873T568 890T664 897Q757 897 832 868T961 785T1044 652T1073 473Q1073 363 1043 273T954 117T806 16T600 -20Q486 -20
393 21T233 149T129 366T92 676Q92 845 127 992T235 1248T418 1420T676 1483Q775 1483 844 1464T956 1414T1018 1342T1038 1257Q1038 1226 1025 1197T983 1146T908 1111T793 1098Q793 1144 787 1191T766 1276T725 1338T657 1362ZM588 772Q560 772 529 764T470 741T418
710T381 674Q382 527 399 421T447 247T518 147T606 115Q685 115 730 195T776 453Q776 619 726 695T588 772Z" />
<glyph unicode="7" glyph-name="seven" horiz-adv-x="1145" d="M338 0L883 1239H344Q288 1239 260 1213T225 1135L213 1032H90L100 1462H1077V1362L512 0H338Z" />
<glyph unicode="8" glyph-name="eight" horiz-adv-x="1145" d="M61 373Q61 439 82 492T144 588T239 668T362 739Q240 810 175 900T109 1110Q109 1181 133 1248T214 1368T361 1451T584 1483Q692 1483 773 1456T910 1381T992 1268T1020 1124Q1020 1063 1001 1016T945
931T858 859T743 793Q835 748 900 703T1005 608T1064 504T1083 387Q1083 290 1048 215T945 87T780 8T559 -20Q431 -20 337 11T182 95T91 220T61 373ZM569 96Q622 96 664 115T737 168T783 249T799 352Q799 402 782 442T729 518T636 587T500 657Q466 635 436 607T385
543T351 463T338 365Q338 305 354 256T401 171T474 116T569 96ZM762 1128Q762 1172 750 1214T713 1290T654 1343T571 1364Q529 1364 497 1347T442 1299T409 1226T397 1135Q397 1082 411 1042T454 970T523 913T618 862Q656 884 683 909T727 966T753 1037T762 1128Z"
/>
<glyph unicode="9" glyph-name="nine" horiz-adv-x="1145" d="M465 -20Q372 -20 308 -1T204 51T147 125T129 211Q129 256 153 286T229 328Q244 282 265 242T315 173T384 126T475 109Q613 109 687 258T772 702Q748 672 719 647T652 603T571 574T473 563Q385 563
312 590T185 671T102 804T72 987Q72 1098 104 1189T196 1345T344 1447T541 1483Q652 1483 746 1443T908 1319T1015 1105T1053 795Q1053 626 1020 478T917 219T735 44T465 -20ZM561 711Q635 711 688 748T772 848Q771 979 755 1073T710 1227T641 1317T553 1346Q465
1346 417 1260T369 999Q369 857 417 784T561 711Z" />
<glyph unicode=":" glyph-name="colon" horiz-adv-x="623" d="M143 147Q143 194 156 225T191 276T245 303T311 311Q345 311 375 303T429 276T465 226T479 147Q479 101 466 70T429 20T376 -7T311 -16Q276 -16 245 -8T192 20T156 70T143 147ZM143 952Q143 999 156
1030T191 1081T245 1108T311 1116Q345 1116 375 1108T429 1081T465 1031T479 952Q479 906 466 875T429 824T376 797T311 788Q276 788 245 796T192 824T156 874T143 952Z" />
<glyph unicode=";" glyph-name="semicolon" horiz-adv-x="602" d="M459 86Q459 21 439 -40T375 -153T262 -246T92 -315V-209Q137 -193 170 -177T226 -143T260 -102T272 -49Q272 -30 261 -18T234 6T198 28T162 58T134 102T123 170Q123 239 165 275T270 311Q357
311 408 251T459 86ZM143 952Q143 999 156 1030T191 1081T245 1108T311 1116Q345 1116 375 1108T429 1081T465 1031T479 952Q479 906 466 875T429 824T376 797T311 788Q276 788 245 796T192 824T156 874T143 952Z" />
<glyph unicode="&lt;" glyph-name="less" horiz-adv-x="1145" d="M133 690V774L1012 1253V1092L352 731L1012 375V213L133 690Z" />
<glyph unicode="=" glyph-name="equal" horiz-adv-x="1145" d="M1016 604V461H129V604H1016ZM1016 1001V858H129V1001H1016Z" />
<glyph unicode="&gt;" glyph-name="greater" horiz-adv-x="1145" d="M133 213V375L793 731L133 1092V1253L1012 774V690L133 213Z" />
<glyph unicode="?" glyph-name="question" horiz-adv-x="1126" d="M1014 1106Q1014 1024 989 959T912 840T785 741T606 653L565 467H440L399 719Q487 754 543 801T631 903T676 1018T688 1139Q688 1188 679 1228T651 1298T601 1344T528 1360Q482 1360 451 1339T401
1283T374 1201T365 1102Q302 1102 249 1111T158 1137T98 1182T76 1245Q76 1295 102 1338T181 1414T317 1464T512 1483Q620 1483 712 1458T871 1384T976 1265T1014 1106ZM332 147Q332 194 345 225T380 276T434 303T500 311Q534 311 564 303T618 276T654 226T668
147Q668 101 655 70T618 20T565 -7T500 -16Q465 -16 434 -8T381 20T345 70T332 147Z" />
<glyph unicode="@" glyph-name="at" horiz-adv-x="1886" d="M1806 803Q1806 650 1769 530T1672 328T1537 202T1384 158Q1293 158 1230 202T1133 350H1120Q1099 310 1072 275T1011 214T935 173T838 158Q774 158 716 179T613 243T542 352T516 508Q516 563 529 627T570
754T642 877T747 982T888 1055T1067 1083Q1138 1083 1189 1065T1272 1022L1358 1065H1407L1321 553Q1319 541 1317 522T1312 483T1309 445T1307 414Q1307 372 1316 345T1339 303T1370 282T1405 276Q1446 276 1487 310T1563 409T1618 572T1640 795Q1640 935 1598
1040T1480 1216T1300 1322T1071 1358Q974 1358 880 1331T700 1252T542 1125T417 953T335 739T305 487Q305 306 359 178T505 -31T721 -149T983 -186Q1066 -186 1145 -171T1295 -132T1427 -77T1536 -14L1585 -92Q1531 -133 1463 -169T1314 -232T1143 -275T954 -291Q837
-291 729 -270T527 -204T354 -95T221 59T135 257T104 500Q104 637 137 762T232 993T382 1186T579 1334T815 1429T1085 1462Q1263 1462 1398 1411T1623 1272T1760 1063T1806 803ZM768 487Q768 385 804 331T899 276Q943 276 974 297T1027 352T1063 430T1085 518L1167
936Q1161 950 1150 960T1123 978T1092 989T1059 993Q1007 993 966 967T892 899T836 802T798 691T775 582T768 487Z" />
<glyph unicode="A" glyph-name="A" horiz-adv-x="1542" d="M446 481L387 305Q379 280 371 247T362 188Q362 168 370 153T391 129T420 114T455 109H541V0H8V109H33Q60 109 82 115T124 137T161 183T197 258L641 1462H922L1350 256Q1365 213 1381 185T1417 140T1459
116T1505 109H1542V0H866V109H946Q961 109 977 113T1005 127T1026 152T1034 188Q1034 213 1028 236T1016 276L944 481H446ZM795 942Q784 977 773 1015T750 1094T728 1173T709 1249Q700 1218 688 1181T663 1105T636 1027T610 952L489 606H903L795 942Z" />
<glyph unicode="B" glyph-name="B" horiz-adv-x="1376" d="M1241 1090Q1241 1022 1223 972T1170 885T1089 822T983 778V768Q1054 750 1112 719T1213 642T1279 536T1303 401Q1303 199 1156 100T717 0H57V109H141Q164 109 183 113T217 132T239 172T248 242V1223Q248
1264 240 1289T217 1329T183 1348T141 1354H57V1462H655Q947 1462 1094 1372T1241 1090ZM571 125H707Q775 125 823 140T901 188T944 276T958 408Q958 483 946 538T905 630T829 684T711 702H571V125ZM571 827H649Q721 827 768 842T844 888T885 970T897 1090Q897
1160 884 1207T840 1283T762 1324T645 1337H571V827Z" />
<glyph unicode="C" glyph-name="C" horiz-adv-x="1368" d="M870 143Q945 143 1003 160T1108 206T1188 269T1249 338Q1265 326 1274 301T1284 250Q1284 207 1261 160T1184 72T1041 6T821 -20Q643 -20 510 34T289 187T157 425T113 733Q113 899 158 1037T291 1274T512
1428T819 1483Q937 1483 1024 1465T1170 1414T1257 1339T1286 1245Q1286 1207 1270 1175T1221 1118T1140 1081T1030 1067Q1030 1118 1019 1168T982 1260T912 1326T805 1352Q708 1352 641 1311T534 1191T475 997T457 733Q457 585 479 474T550 290T677 180T870 143Z"
/>
<glyph unicode="D" glyph-name="D" horiz-adv-x="1571" d="M1458 758Q1458 590 1412 451T1275 211T1048 56T733 0H57V109H143Q166 109 185 113T218 132T240 172T248 242V1229Q248 1270 240 1294T218 1332T184 1349T143 1354H57V1462H733Q903 1462 1037 1418T1265
1285T1408 1064T1458 758ZM1112 758Q1112 1051 1005 1194T688 1337H571V127H686Q791 127 871 170T1004 296T1085 494T1112 758Z" />
<glyph unicode="E" glyph-name="E" horiz-adv-x="1337" d="M573 125H983Q1014 125 1036 136T1074 169T1099 218T1114 281L1130 377H1272L1257 0H57V109H143Q165 109 184 113T217 129T240 166T248 231V1221Q248 1265 240 1291T218 1331T185 1349T143 1354H57V1462H1194L1202
1085H1059L1049 1182Q1041 1257 1011 1297T918 1337H573V825H1059V702H573V125Z" />
<glyph unicode="F" glyph-name="F" horiz-adv-x="1272" d="M1059 1085L1049 1184Q1039 1265 1000 1301T897 1337H571V778H1057V657H571V242Q571 198 579 172T602 132T636 114T678 109H805V0H57V109H143Q165 109 184 113T217 129T240 166T248 231V1229Q248 1270
240 1294T218 1332T184 1349T143 1354H57V1462H1192L1202 1085H1059Z" />
<glyph unicode="G" glyph-name="G" horiz-adv-x="1575" d="M866 -20Q676 -20 535 34T299 187T159 425T113 733Q113 899 162 1037T307 1274T546 1428T877 1483Q1005 1483 1100 1465T1260 1414T1357 1339T1389 1245Q1389 1209 1372 1178T1321 1122T1238 1085T1124
1071Q1124 1133 1109 1185T1063 1274T983 1331T870 1352Q758 1352 680 1311T552 1191T480 997T457 733Q457 585 480 471T556 278T692 160T897 119Q935 119 973 122T1047 133V434Q1047 516 1010 548T901 580H874V688H1518V580H1491Q1460 580 1437 573T1399 547T1377
500T1370 426V90Q1250 35 1128 8T866 -20Z" />
<glyph unicode="H" glyph-name="H" horiz-adv-x="1677" d="M913 0V109H1001Q1023 109 1042 113T1075 132T1098 172T1106 242V700H571V242Q571 198 579 172T602 132T635 114T676 109H764V0H57V109H143Q165 109 184 113T217 132T240 172T248 242V1228Q248 1269 240
1293T217 1331T183 1348T143 1353H57V1462H764V1353H676Q654 1353 635 1349T602 1330T580 1290T571 1220V825H1106V1220Q1106 1264 1098 1290T1076 1330T1042 1348T1001 1353H913V1462H1620V1353H1534Q1513 1353 1494 1349T1461 1330T1438 1290T1430 1220V231Q1430
191 1438 167T1461 130T1494 113T1534 109H1620V0H913Z" />
<glyph unicode="I" glyph-name="I" horiz-adv-x="821" d="M57 0V109H143Q166 109 185 113T218 132T240 172T248 242V1220Q248 1264 240 1290T218 1330T185 1348T143 1353H57V1462H764V1353H678Q656 1353 637 1349T603 1330T581 1290T573 1220V242Q573 198 581
172T603 132T636 114T678 109H764V0H57Z" />
<glyph unicode="J" glyph-name="J" horiz-adv-x="754" d="M731 1354H645Q623 1354 604 1350T570 1331T548 1291T539 1221V-4Q539 -97 518 -169T460 -295T372 -387T260 -448T132 -481T-6 -492H-80V-373H-43Q6 -373 52 -355T135 -293T193 -180T215 -6V1229Q215 1270
207 1294T185 1332T151 1349T111 1354H25V1462H731V1354Z" />
<glyph unicode="K" glyph-name="K" horiz-adv-x="1503" d="M889 1090Q922 1125 944 1153T980 1206T1000 1253T1006 1296Q1006 1330 980 1343T891 1356V1462H1446V1356Q1404 1356 1367 1343T1293 1306T1222 1249T1151 1176L881 879L1262 274Q1292 226 1319 195T1375
144T1432 117T1495 109H1503V0H1393Q1315 0 1256 5T1153 20T1076 45T1020 82T977 129T938 188L662 659L571 588V242Q571 198 579 172T602 132T636 114T678 109H764V0H57V109H143Q165 109 184 113T217 129T240 166T248 231V1229Q248 1270 240 1294T218 1332T184
1349T143 1354H57V1462H764V1354H678Q656 1354 636 1350T602 1331T580 1291T571 1221V743L889 1090Z" />
<glyph unicode="L" glyph-name="L" horiz-adv-x="1339" d="M57 0V109H143Q166 109 185 113T218 132T240 172T248 242V1221Q248 1265 240 1291T218 1331T185 1349T143 1354H57V1462H764V1354H678Q657 1354 638 1350T604 1332T582 1295T573 1229V125H954Q1026 125
1066 170T1124 303L1157 457H1272L1257 0H57Z" />
<glyph unicode="M" glyph-name="M" horiz-adv-x="1950" d="M1237 0V109H1257Q1289 109 1313 113T1354 129T1378 163T1386 223V1260L973 0H834L401 1260V242Q401 198 411 172T441 132T489 114T553 109H565V0H57V109H143Q165 109 184 113T217 129T240 166T248 231V1229Q248
1270 240 1294T218 1332T184 1349T143 1354H57V1462H647L987 473L1313 1462H1892V1354H1806Q1784 1354 1765 1350T1732 1331T1710 1291T1702 1221V242Q1702 198 1710 172T1732 132T1765 114T1806 109H1892V0H1237Z" />
<glyph unicode="N" glyph-name="N" horiz-adv-x="1614" d="M1200 0L401 1128V242Q401 198 409 172T432 132T465 114T506 109H592V0H57V109H143Q165 109 184 113T217 132T240 172T248 242V1229Q248 1270 240 1294T217 1332T183 1349T143 1354H57V1462H512L1235
440V1229Q1235 1270 1227 1294T1204 1332T1170 1349T1130 1354H1044V1462H1579V1354H1493Q1472 1354 1453 1350T1420 1331T1397 1291T1389 1221V0H1200Z" />
<glyph unicode="O" glyph-name="O" horiz-adv-x="1612" d="M1499 733Q1499 564 1454 425T1320 187T1103 34T807 -20Q632 -20 502 34T285 187T156 425T113 735Q113 905 156 1043T285 1280T502 1431T809 1485Q975 1485 1103 1432T1320 1280T1453 1043T1499 733ZM457
733Q457 586 476 471T537 277T645 155T807 113Q903 113 969 155T1077 276T1136 471T1155 733Q1155 880 1137 995T1077 1189T970 1310T809 1352Q713 1352 646 1311T537 1190T476 995T457 733Z" />
<glyph unicode="P" glyph-name="P" horiz-adv-x="1307" d="M1245 1028Q1245 936 1213 851T1109 701T922 598T641 559H571V231Q571 191 580 167T604 130T639 113T680 109H805V0H57V109H143Q166 109 185 113T218 132T240 172T248 242V1229Q248 1270 240 1294T218
1332T184 1349T143 1354H57V1462H686Q828 1462 933 1432T1107 1346T1211 1209T1245 1028ZM571 678H621Q697 678 750 697T836 757T885 863T901 1020Q901 1102 888 1162T845 1262T768 1321T651 1341H571V678Z" />
<glyph unicode="Q" glyph-name="Q" horiz-adv-x="1612" d="M1499 733Q1499 589 1467 468T1371 252T1215 94T1001 0Q1010 -113 1038 -185T1106 -299T1196 -357T1296 -373H1329V-492H1182Q1090 -492 1001 -465T839 -380T718 -230T659 -8Q521 13 419 75T248 234T147
457T113 735Q113 905 156 1043T285 1280T502 1431T809 1485Q975 1485 1103 1432T1320 1280T1453 1043T1499 733ZM457 733Q457 586 476 471T537 277T645 155T807 113Q903 113 969 155T1077 276T1136 471T1155 733Q1155 880 1137 995T1077 1189T970 1310T809 1352Q713
1352 646 1311T537 1190T476 995T457 733Z" />
<glyph unicode="R" glyph-name="R" horiz-adv-x="1448" d="M57 109H143Q164 109 183 113T216 129T239 166T248 231V1229Q248 1270 240 1294T217 1332T183 1349T143 1354H57V1462H717Q1007 1462 1142 1365T1278 1083Q1278 1002 1254 939T1191 829T1101 750T999
696L1243 276Q1269 232 1293 201T1342 149T1393 119T1448 109H1456V0H1389Q1297 0 1229 7T1109 34T1020 91T950 184L707 635H571V231Q571 191 579 167T602 130T636 113T676 109H764V0H57V109ZM571 754H686Q757 754 804 773T880 829T921 923T934 1055Q934 1133 920
1187T876 1275T798 1325T682 1341H571V754Z" />
<glyph unicode="S" glyph-name="S" horiz-adv-x="1200" d="M541 -20Q403 -20 311 6T164 73T85 165T61 266Q61 319 80 355T132 414T206 447T293 457Q293 369 314 303T372 192T460 125T573 102Q633 102 680 119T760 166T810 236T827 324Q827 376 806 416T743 491T636
557T485 625Q378 669 305 715T186 816T122 933T102 1071Q102 1165 140 1241T245 1371T404 1454T604 1483Q717 1483 799 1465T934 1414T1014 1339T1040 1245Q1040 1209 1025 1178T978 1124T899 1088T788 1075Q788 1118 777 1167T739 1259T672 1330T571 1358Q530
1358 493 1346T429 1310T385 1251T369 1169Q369 1126 383 1088T434 1014T537 941T707 862Q812 819 886 774T1007 678T1076 565T1098 428Q1098 329 1059 247T947 105T772 13T541 -20Z" />
<glyph unicode="T" glyph-name="T" horiz-adv-x="1337" d="M831 242Q831 198 839 172T861 132T895 114T936 109H1022V0H315V109H401Q424 109 443 113T476 132T498 172T506 242V1337H342Q296 1337 265 1327T215 1299T186 1253T172 1192L158 1065H20L31 1462H1307L1317
1065H1180L1165 1192Q1161 1226 1152 1253T1123 1298T1072 1327T995 1337H831V242Z" />
<glyph unicode="U" glyph-name="U" horiz-adv-x="1530" d="M1497 1354H1409Q1388 1354 1369 1350T1336 1331T1313 1291T1305 1221V422Q1305 319 1276 237T1184 98T1024 11T793 -20Q659 -20 554 5T375 87T264 231T225 446V1229Q225 1270 217 1294T194 1332T161
1349T121 1354H33V1462H739V1354H653Q632 1354 613 1350T580 1331T557 1291T549 1221V430Q549 344 570 286T632 192T728 141T854 125Q922 125 977 142T1070 197T1130 291T1151 426V1229Q1151 1270 1143 1294T1121 1332T1087 1349T1047 1354H961V1462H1497V1354Z"
/>
<glyph unicode="V" glyph-name="V" horiz-adv-x="1430" d="M1430 1354H1331Q1317 1354 1306 1348T1284 1326T1261 1280T1233 1204L815 0H610L174 1255Q164 1284 149 1303T116 1334T80 1349T47 1354H0V1462H676V1354H582Q567 1354 553 1351T528 1339T509 1318T502
1286Q502 1266 508 1241T520 1198L729 567Q737 544 745 513T762 448T776 381T786 319Q789 336 796 365T814 429T834 498T854 561L1065 1184Q1069 1195 1073 1208T1081 1236T1087 1263T1090 1284Q1090 1318 1068 1336T1008 1354H901V1462H1430V1354Z" />
<glyph unicode="W" glyph-name="W" horiz-adv-x="2185" d="M1237 1448L1520 666Q1538 618 1553 569T1582 474T1605 391T1620 326Q1628 363 1637 408T1656 502T1678 604T1702 705L1810 1147Q1813 1159 1816 1175T1823 1206T1827 1235T1829 1257Q1829 1310 1798
1332T1698 1354H1651V1462H2185V1354H2146Q2116 1354 2093 1348T2052 1325T2020 1276T1991 1194L1673 0H1440L1096 961L801 0H547L172 1245Q163 1277 150 1298T120 1331T80 1349T27 1354H0V1462H684V1354H637Q575 1354 545 1330T514 1255Q514 1238 520 1206T535
1145L672 672Q683 633 695 588T719 496T739 406T752 330Q766 396 782 453T817 571L1087 1448H1237Z" />
<glyph unicode="X" glyph-name="X" horiz-adv-x="1499" d="M1071 1294Q1071 1312 1062 1324T1038 1342T1001 1351T956 1354H950V1462H1430V1354H1411Q1381 1354 1357 1347T1310 1322T1262 1276T1208 1206L911 801L1288 217Q1328 154 1371 132T1452 109H1479V0H803V109H813Q936
109 936 176Q936 188 934 199T925 225T904 262T868 317L680 602L459 303Q440 277 423 244T406 178Q406 144 434 127T530 109H537V0H20V109H33Q70 109 98 119T150 147T198 192T246 252L604 719L266 1245Q249 1272 233 1292T196 1326T150 1347T90 1354H63V1462H741V1354H735Q700
1354 677 1350T639 1337T620 1317T614 1294Q614 1273 629 1241T668 1174L838 920L1016 1169Q1034 1197 1052 1231T1071 1294Z" />
<glyph unicode="Y" glyph-name="Y" horiz-adv-x="1419" d="M336 0V109H432Q457 109 478 112T516 127T541 165T551 233V518L172 1245Q157 1275 144 1296T114 1329T78 1348T27 1354H0V1462H686V1354H651Q589 1354 559 1329T528 1262Q528 1236 537 1206T559 1149L711
848Q743 783 763 733T801 635Q822 689 849 752T911 885L1030 1130Q1052 1175 1058 1205T1065 1253Q1065 1306 1032 1330T930 1354H883V1462H1419V1354H1380Q1354 1354 1336 1347T1301 1322T1267 1273T1225 1194L877 516V236Q877 191 886 166T910 128T946 112T991
109H1092V0H336Z" />
<glyph unicode="Z" glyph-name="Z" horiz-adv-x="1364" d="M1229 1358L459 125H901Q964 125 1004 142T1067 189T1101 254T1116 330L1126 422H1274L1264 0H86V102L854 1337H451Q403 1337 372 1324T323 1287T296 1228T283 1151L272 1040H125L135 1462H1229V1358Z" />
<glyph unicode="[" glyph-name="bracketleft" horiz-adv-x="848" d="M205 -262V1556H772V1448H684Q650 1448 619 1443T566 1423T530 1378T516 1300V-6Q516 -54 529 -83T565 -128T619 -149T684 -154H772V-262H205Z" />
<glyph unicode="\" glyph-name="backslash" horiz-adv-x="590" d="M0 1556H145L590 -248H442L0 1556Z" />
<glyph unicode="]" glyph-name="bracketright" horiz-adv-x="848" d="M643 1556V-262H76V-154H164Q199 -154 229 -149T282 -129T318 -84T332 -6V1300Q332 1349 319 1378T283 1422T230 1443T164 1448H76V1556H643Z" />
<glyph unicode="^" glyph-name="asciicircum" horiz-adv-x="1145" d="M526 1462H614L1049 537H889L569 1239L254 537H94L526 1462Z" />
<glyph unicode="_" glyph-name="underscore" horiz-adv-x="940" d="M950 -291H-10V-170H950V-291Z" />
<glyph unicode="`" glyph-name="grave" horiz-adv-x="1182" d="M713 1241Q665 1269 607 1310T494 1396T395 1480T332 1548V1569H653Q669 1535 694 1495T746 1414T802 1335T852 1268V1241H713Z" />
<glyph unicode="a" glyph-name="a" horiz-adv-x="1227" d="M410 305Q410 217 438 173T526 129Q570 129 605 147T666 200T705 282T719 391V545L627 539Q566 536 524 520T457 474T421 403T410 305ZM592 999Q553 999 527 983T484 937T462 867T455 778Q317 778 248
809T178 915Q178 971 211 1011T302 1076T436 1112T600 1124Q708 1124 788 1106T922 1046T1003 939T1030 776V254Q1030 212 1036 184T1057 140T1095 116T1153 109H1161V0H780L737 141H719Q685 100 655 70T591 19T515 -10T414 -20Q346 -20 288 0T186 61T117 165T92
313Q92 480 206 560T551 647L719 653V766Q719 817 715 860T698 934T660 982T592 999Z" />
<glyph unicode="b" glyph-name="b" horiz-adv-x="1329" d="M1233 553Q1233 404 1206 296T1125 118T994 14T813 -20Q754 -20 706 -7T620 30T552 87T500 160H481L424 0H35V109H49Q78 109 106 114T156 134T191 177T205 252V1311Q205 1355 192 1381T157 1423T106 1443T43
1448H35V1556H516V1206Q516 1174 514 1131T508 1050Q504 1005 500 958H514Q558 1034 631 1078T821 1122Q921 1122 997 1089T1126 986T1206 809T1233 553ZM725 971Q664 971 624 946T560 868T526 738T516 553Q516 452 526 374T560 242T625 161T727 133Q828 133 873
242T918 555Q918 764 873 867T725 971Z" />
<glyph unicode="c" glyph-name="c" horiz-adv-x="1079" d="M604 -20Q491 -20 398 9T237 105T133 280T96 545Q96 711 134 822T240 1000T400 1095T598 1124Q697 1124 773 1108T900 1062T977 994T1004 909Q1004 876 993 845T952 789T871 750T739 735Q739 788 733
836T711 920T671 977T606 999Q561 999 526 978T465 904T426 765T412 547Q412 339 469 236T655 133Q708 133 754 145T839 180T905 233T952 299Q977 284 989 259T1001 205Q1001 166 978 126T907 54T783 1T604 -20Z" />
<glyph unicode="d" glyph-name="d" horiz-adv-x="1329" d="M1122 252Q1122 205 1136 177T1173 134T1227 114T1292 109H1300V0H903L846 160H827Q804 118 775 85T707 29T620 -7T512 -20Q412 -20 334 13T203 116T122 293T94 547Q94 695 121 803T202 982T332 1087T508
1122Q566 1122 612 1110T696 1076T763 1024T813 958H827Q823 1015 819 1065Q818 1086 817 1108T814 1149T812 1184T811 1208V1321Q811 1363 798 1388T762 1427T709 1444T645 1448H629V1556H1122V252ZM600 133Q661 133 701 158T766 236T801 366T811 551Q811 652
801 730T767 862T702 943T600 971Q549 971 513 944T454 862T421 730T410 549Q410 340 453 237T600 133Z" />
<glyph unicode="e" glyph-name="e" horiz-adv-x="1169" d="M608 991Q522 991 472 906T416 657H770Q770 735 761 797T733 902T683 968T608 991ZM627 -20Q497 -20 398 18T231 128T130 304T96 543Q96 687 130 796T229 978T388 1087T604 1124Q715 1124 804 1093T955
999T1050 845T1083 631V526H412Q415 423 434 349T488 227T572 156T686 133Q739 133 784 145T865 180T929 233T975 299Q1030 269 1030 199Q1030 155 1006 116T932 46T807 -2T627 -20Z" />
<glyph unicode="f" glyph-name="f" horiz-adv-x="834" d="M39 0V109H84Q106 109 131 113T178 132T214 172T229 242V958H47V1098H229V1174Q229 1269 253 1343T329 1469T460 1548T647 1575Q746 1575 812 1564T917 1532T972 1484T989 1425Q989 1356 927 1324T737
1292Q737 1317 732 1346T715 1400T684 1441T635 1458Q610 1458 592 1445T563 1402T546 1325T541 1210V1098H823V958H541V242Q541 198 555 172T591 132T638 114T686 109H782V0H39Z" />
<glyph unicode="g" glyph-name="g" horiz-adv-x="1147" d="M1137 1059Q1137 1036 1130 1015T1107 977T1062 952T991 942Q991 963 985 979T967 1006T942 1022T913 1028Q896 1028 877 1021T846 1006Q867 983 885 954T916 890T938 820T946 745Q946 668 922 603T846
489T717 414T532 387Q521 387 504 387T470 388T438 390T414 393Q401 386 388 376T364 352T347 323T340 289Q340 255 366 239T436 223H684Q786 223 860 202T982 140T1054 42T1077 -90Q1077 -185 1041 -259T932 -385T747 -464T483 -492Q241 -492 123 -420T4 -207Q4
-97 75 -39T281 31Q253 42 226 58T178 96T144 148T131 213Q131 247 144 276T182 331T239 381T313 428Q268 444 230 472T164 541T120 632T104 745Q104 925 208 1024T532 1124Q605 1124 667 1106T776 1061Q793 1079 813 1099T860 1137T918 1165T989 1176Q1026 1176
1053 1167T1099 1141T1127 1104T1137 1059ZM246 -203Q246 -288 307 -328T487 -369Q667 -369 749 -317T831 -164Q831 -99 790 -73T666 -47H428Q397 -47 365 -52T307 -75T263 -122T246 -203ZM383 745Q383 691 390 648T415 573T459 525T526 508Q567 508 594 524T637
572T659 648T666 748Q666 805 659 851T636 931T592 982T524 1001Q484 1001 457 982T414 929T390 848T383 745Z" />
<glyph unicode="h" glyph-name="h" horiz-adv-x="1366" d="M858 0V674Q858 740 850 791T822 878T771 931T694 950Q643 950 609 924T555 855T525 754T516 633V242Q516 199 526 173T556 133T602 114T664 109H670V0H41V109H45Q80 109 109 113T159 133T193 176T205
250V1323Q205 1364 191 1388T154 1426T107 1444T59 1448H35V1556H516V1219Q516 1179 514 1133T508 1048Q504 1002 500 958H518Q549 1016 583 1049T657 1098T739 1119T831 1124Q910 1124 973 1101T1079 1030T1146 908T1169 729V254Q1169 206 1177 178T1203 134T1246
114T1307 109H1313V0H858Z" />
<glyph unicode="i" glyph-name="i" horiz-adv-x="721" d="M176 1430Q176 1469 189 1497T226 1542T281 1568T350 1577Q385 1577 417 1569T473 1543T511 1497T526 1430Q526 1392 512 1364T473 1318T417 1291T350 1282Q313 1282 282 1291T227 1318T190 1364T176 1430ZM59
109Q82 109 107 113T154 132T190 172T205 242V864Q205 905 191 929T154 967T107 985T59 989H35V1098H516V242Q516 198 530 172T566 132T614 114T662 109H686V0H35V109H59Z" />
<glyph unicode="j" glyph-name="j" horiz-adv-x="707" d="M516 1098V-16Q516 -154 478 -245T371 -391T208 -469T0 -492H-41V-365H-27Q29 -365 72 -347T145 -287T190 -175T205 0V854Q205 898 192 924T157 965T104 984T41 989H35V1098H516ZM178 1430Q178 1469 191
1497T228 1542T283 1568T352 1577Q387 1577 419 1569T475 1543T513 1497T528 1430Q528 1392 514 1364T475 1318T419 1291T352 1282Q315 1282 284 1291T229 1318T192 1364T178 1430Z" />
<glyph unicode="k" glyph-name="k" horiz-adv-x="1303" d="M1303 0H1274Q1162 0 1086 5T955 28T860 82T780 182L598 469L516 408V242Q516 198 530 172T566 132T614 114T662 109H686V0H35V109H59Q82 109 107 113T154 132T190 172T205 242V1323Q205 1364 191 1388T154
1426T107 1444T59 1448H35V1556H516V766Q516 738 515 702T511 632Q508 593 506 553L764 842Q798 880 808 902T819 940Q819 966 792 980T713 995V1098H1229V995Q1158 995 1090 954T940 821L811 674L1083 268Q1137 187 1192 148T1296 109H1303V0Z" />
<glyph unicode="l" glyph-name="l" horiz-adv-x="721" d="M59 109Q82 109 107 113T154 132T190 172T205 242V1323Q205 1364 191 1388T154 1426T107 1444T59 1448H35V1556H516V242Q516 198 530 172T566 132T614 114T662 109H686V0H35V109H59Z" />
<glyph unicode="m" glyph-name="m" horiz-adv-x="2019" d="M858 0V674Q858 740 850 791T822 878T771 931T694 950Q643 950 609 924T555 855T525 754T516 633V242Q516 199 526 173T556 133T602 114T664 109H670V0H41V109H45Q80 109 109 113T159 133T193 176T205
250V862Q205 905 195 931T165 971T118 990T57 995H51V1098H481L508 952H518Q549 1010 583 1044T657 1096T739 1119T831 1124Q944 1124 1024 1084T1141 952H1159Q1190 1010 1226 1044T1304 1096T1391 1119T1485 1124Q1564 1124 1627 1101T1733 1030T1800 908T1823
729V254Q1823 206 1831 178T1857 134T1900 114T1960 109H1966V0H1511V674Q1511 806 1475 878T1348 950Q1300 950 1266 927T1211 863T1179 770T1169 657V254Q1169 206 1177 178T1203 134T1246 114T1307 109H1313V0H858Z" />
<glyph unicode="n" glyph-name="n" horiz-adv-x="1366" d="M858 0V674Q858 740 850 791T822 878T771 931T694 950Q643 950 609 924T555 855T525 754T516 633V242Q516 199 526 173T556 133T602 114T664 109H670V0H41V109H45Q80 109 109 113T159 133T193 176T205
250V856Q205 899 195 925T165 965T118 984T57 989H51V1098H481L508 952H518Q549 1010 583 1044T657 1096T739 1119T831 1124Q910 1124 973 1101T1079 1030T1146 908T1169 729V254Q1169 206 1177 178T1203 134T1246 114T1307 109H1313V0H858Z" />
<glyph unicode="o" glyph-name="o" horiz-adv-x="1255" d="M1159 553Q1159 264 1024 122T625 -20Q502 -20 404 15T238 122T133 301T96 553Q96 842 231 983T631 1124Q754 1124 851 1089T1017 983T1122 805T1159 553ZM414 553Q414 444 425 361T462 222T529 138T629
109Q688 109 728 137T794 222T831 361T842 553Q842 663 831 745T794 883T727 965T627 993Q568 993 527 966T461 883T425 746T414 553Z" />
<glyph unicode="p" glyph-name="p" horiz-adv-x="1321" d="M51 -383Q74 -383 99 -379T146 -360T182 -320T197 -250V846Q197 893 187 921T158 964T114 984T59 989H45V1098H446L483 938H492Q514 978 543 1011T611 1068T698 1105T805 1118Q907 1118 985 1085T1117
981T1197 802T1225 545Q1225 397 1198 290T1119 112T990 9T813 -25Q696 -25 623 19T506 139H492Q496 92 500 47Q503 9 505 -34T508 -109V-250Q508 -294 522 -320T558 -360T605 -378T653 -383H698V-492H27V-383H51ZM717 127Q820 127 864 230T909 543Q909 747 865
856T719 965Q658 965 617 938T552 857T518 725T508 545Q508 439 518 361T552 230T616 153T717 127Z" />
<glyph unicode="q" glyph-name="q" horiz-adv-x="1327" d="M608 -492V-383H645Q679 -383 709 -379T761 -362T797 -324T811 -256V-106Q811 -97 811 -82T813 -48T816 -7T819 36Q823 85 827 143H813Q792 108 763 78T697 27T613 -7T508 -20Q409 -20 332 13T202 117T122
295T94 551Q94 698 121 805T202 981T334 1084T512 1118Q572 1118 620 1106T706 1070T774 1013T827 938H846L887 1098H1300V989H1292Q1258 989 1228 984T1174 964T1136 921T1122 846V-256Q1122 -298 1135 -323T1171 -362T1224 -379T1288 -383H1325V-492H608ZM600
965Q497 965 454 862T410 549Q410 344 453 238T600 131Q661 131 701 158T766 237T801 367T811 547Q811 653 801 731T767 862T702 939T600 965Z" />
<glyph unicode="r" glyph-name="r" horiz-adv-x="1071" d="M725 0H41V109H47Q82 109 111 114T161 134T193 179T205 256V850Q205 895 195 922T165 965T118 984T57 989H51V1098H465L506 938H516Q536 984 560 1018T617 1076T696 1110T805 1122Q926 1122 983 1080T1040
956Q1040 862 972 810T780 758Q780 800 776 832T760 885T729 917T680 928Q644 928 618 910T574 864T545 799T527 727T518 657T516 600V246Q516 201 527 174T557 132T602 114T659 109H725V0Z" />
<glyph unicode="s" glyph-name="s" horiz-adv-x="999" d="M473 -20Q362 -20 284 -2T156 48T84 124T61 219Q61 269 80 299T129 347T192 369T252 375Q252 311 268 260T313 174T382 119T473 100Q526 100 564 111T627 141T664 186T676 240Q676 274 664 300T622 350T545
396T424 444Q341 473 278 505T171 579T105 674T82 797Q82 879 113 940T203 1041T342 1102T522 1122Q619 1122 687 1106T798 1062T861 1001T881 932Q881 863 833 827T672 791Q672 893 627 949T492 1006Q459 1006 429 998T376 974T340 935T326 879Q326 846 338 820T382
771T468 723T606 670Q674 646 731 616T830 546T895 456T918 340Q918 255 889 188T802 75T662 5T473 -20Z" />
<glyph unicode="t" glyph-name="t" horiz-adv-x="829" d="M643 145Q683 145 719 150T788 164V31Q772 23 745 14T681 -2T598 -15T498 -20Q429 -20 373 -4T278 51T218 151T197 303V958H43V1063Q109 1063 161 1089T244 1149Q307 1215 338 1352H508V1098H770V958H508V324Q508
231 539 188T643 145Z" />
<glyph unicode="u" glyph-name="u" horiz-adv-x="1366" d="M907 0L862 145H852Q821 92 785 60T708 10T622 -14T528 -20Q368 -20 283 79T197 385V844Q197 889 189 917T164 961T121 983T57 989H53V1098H508V442Q508 376 515 323T541 233T589 175T664 154Q713 154
748 175T806 237T839 335T850 465V858Q850 903 838 929T806 968T759 985T702 989H696V1098H1161V238Q1161 193 1171 168T1200 129T1243 113T1298 109H1315V0H907Z" />
<glyph unicode="v" glyph-name="v" horiz-adv-x="1241" d="M1241 989H1200Q1179 989 1163 984T1131 964T1100 919T1067 840L770 0H500L164 891Q153 920 139 939T105 969T60 984T0 989V1098H635V989H549Q518 989 500 973T481 924Q481 899 487 875T500 834L637 446Q662
381 680 315T709 197Q714 221 723 253T741 315T757 371T768 406L907 817Q917 845 923 873T930 930Q930 964 908 976T850 989H791V1098H1241V989Z" />
<glyph unicode="w" glyph-name="w" horiz-adv-x="1753" d="M1012 1087L1212 483Q1237 409 1248 358T1266 268H1272Q1277 294 1281 317T1292 365T1307 419T1327 487L1417 786Q1425 812 1430 842T1436 889Q1436 941 1403 965T1300 989H1286V1098H1755V989H1729Q1699
989 1677 983T1638 960T1606 911T1575 829L1311 0H1090L866 680L631 0H408L145 881Q134 913 121 934T91 967T52 984T0 989H-6V1098H594V989H567Q505 989 475 972T444 903Q444 886 449 862T461 815L537 549Q547 512 556 473T573 397T587 327T598 268H604Q613 319
628 373T670 504L879 1087H1012Z" />
<glyph unicode="x" glyph-name="x" horiz-adv-x="1323" d="M891 928Q891 965 863 977T786 989H780V1098H1253V989H1235Q1205 989 1182 984T1135 964T1086 924T1028 858L817 600L1118 217Q1165 158 1204 134T1282 109H1309V0H657V109H668Q791 109 791 176Q791 188
788 200T777 228T754 265T713 317L596 459L453 281Q434 256 422 230T410 178Q410 144 439 127T537 109H543V0H23V109H41Q78 109 106 115T158 137T208 177T264 240L522 551L264 881Q221 935 178 962T88 989H61V1098H705V989H698Q663 989 641 985T605 972T587 953T582
930Q582 908 593 888T629 836L743 696L840 813Q864 844 877 872T891 928Z" />
<glyph unicode="y" glyph-name="y" d="M1186 1098V989Q1155 989 1132 982T1089 958T1054 912T1022 840Q986 738 947 632T869 420T790 208T713 0Q677 -99 645 -174T578 -304T499 -395T399 -452T267 -483T90 -492H55V-373Q162 -373 237 -347T364 -273T449 -158T508
-10L139 891Q127 920 112 937T80 963T43 974T0 977V1098H584V989Q524 989 490 974T455 913Q455 896 462 873T475 834Q493 791 512 741T550 640T586 542T616 459Q631 420 641 389T657 332T668 285T674 242Q676 263 682 288T695 337T709 379T719 406L854 807Q858
817 861 830T868 858T872 885T874 907Q874 954 835 971T725 989V1098H1186Z" />
<glyph unicode="z" glyph-name="z" horiz-adv-x="1083" d="M754 139Q785 139 806 148T843 177T869 228T889 305L901 371H1022L1012 0H37V84L641 958H342Q319 958 302 952T272 929T247 885T225 815L213 766H90L115 1098H999V1010L393 139H754Z" />
<glyph unicode="{" glyph-name="braceleft" horiz-adv-x="905" d="M649 -256Q563 -256 498 -235T388 -175T322 -79T299 47V397Q299 456 281 492T230 550T155 579T61 590V715Q111 717 154 725T230 754T280 811T299 905V1257Q299 1401 387 1478T649 1556H844V1448H764Q720
1448 692 1435T648 1397T625 1335T618 1249V901Q618 808 565 749T393 662V645Q511 616 564 556T618 403V53Q618 5 624 -32T647 -95T692 -134T764 -147H844V-256H649Z" />
<glyph unicode="|" glyph-name="bar" horiz-adv-x="1145" d="M645 -492H498V1556H645V-492Z" />
<glyph unicode="}" glyph-name="braceright" horiz-adv-x="905" d="M61 -256V-147H141Q185 -147 213 -134T257 -96T280 -33T287 53V403Q287 496 340 556T512 645V662Q393 689 340 748T287 901V1249Q287 1297 281 1334T258 1397T213 1435T141 1448H61V1556H256Q429
1556 517 1479T606 1257V905Q606 848 624 812T675 754T750 725T844 715V590Q794 588 751 580T675 550T625 493T606 397V47Q606 -23 584 -79T517 -174T408 -235T256 -256H61Z" />
<glyph unicode="~" glyph-name="asciitilde" horiz-adv-x="1149" d="M541 664Q504 680 476 690T426 707T383 716T340 719Q312 719 282 710T223 684T165 646T113 598V756Q212 864 360 864Q389 864 414 862T466 853T527 834T608 801Q645 785 673 774T724 757T767
748T809 745Q838 745 867 754T926 780T984 819T1036 866V709Q938 600 788 600Q759 600 735 602T683 612T622 631T541 664Z" />
<glyph unicode="&#xa0;" glyph-name="nbspace" horiz-adv-x="532" />
<glyph unicode="&#xa1;" glyph-name="exclamdown" horiz-adv-x="782" d="M569 -369H213L334 627H449L569 -369ZM557 946Q557 899 544 868T509 817T455 790T389 782Q355 782 325 790T271 817T235 867T221 946Q221 992 234 1023T271 1074T324 1101T389 1110Q424
1110 455 1102T508 1074T544 1024T557 946Z" />
<glyph unicode="&#xa2;" glyph-name="cent" horiz-adv-x="1145" d="M571 170Q468 177 385 211T242 313T150 483T117 733Q117 886 151 992T245 1167T389 1269T571 1311V1462H698V1311Q786 1306 854 1288T968 1241T1037 1176T1061 1098Q1061 1065 1050 1034T1009
978T928 939T797 924Q797 967 792 1008T776 1083T745 1141T698 1178V322Q750 323 795 336T878 371T944 422T991 487Q1017 472 1029 447T1042 393Q1042 358 1022 321T959 253T852 199T698 170V0H571V170ZM430 735Q430 577 463 480T571 346V1174Q538 1159 512 1128T468
1044T440 915T430 735Z" />
<glyph unicode="&#xa3;" glyph-name="sterling" horiz-adv-x="1145" d="M553 711Q560 688 565 669T575 630T581 590T584 543Q584 382 399 262L406 252Q412 254 424 257T453 263T489 268T526 270Q547 270 566 268T605 260T650 247T707 229Q752 215 788 207T870
199Q940 199 992 240T1085 350V121Q1045 50 987 15T848 -20Q817 -20 784 -16T718 -6T657 8T604 25Q554 42 499 56T401 70Q366 70 336 66T277 53T223 34T168 8L78 -39V145L143 186Q175 206 208 234T268 300T312 388T330 500Q330 559 318 607T285 709H49V834H240Q229
859 218 891T196 959T180 1034T174 1112Q174 1292 291 1387T629 1483Q739 1483 816 1465T941 1414T1012 1339T1034 1245Q1034 1173 969 1126T778 1079Q778 1126 771 1175T746 1265T696 1332T614 1358Q537 1358 492 1300T446 1120Q446 1078 452 1038T468 960T490
891T514 834H877V709L553 711Z" />
<glyph unicode="&#xa4;" glyph-name="currency" horiz-adv-x="1145" d="M195 729Q195 788 211 842T260 942L137 1065L240 1167L362 1044Q407 1073 459 1089T569 1106Q626 1106 678 1090T776 1042L903 1169L1006 1065L881 938Q912 893 929 841T946 729Q946 670
930 619T885 522L1006 401L903 299L782 420Q736 389 682 372T569 354Q511 354 457 370T358 418L240 299L135 403L254 522Q195 613 195 729ZM334 729Q334 680 352 637T402 562T477 511T569 492Q620 492 663 510T738 561T787 637T805 729Q805 780 788 823T739 899T664
950T569 969Q520 969 477 951T403 900T353 824T334 729Z" />
<glyph unicode="&#xa5;" glyph-name="yen" horiz-adv-x="1104" d="M195 0V109H242Q276 109 306 110T358 121T395 156T410 225V338H123V459H410V578H123V698H375L133 1245Q119 1276 107 1297T79 1330T45 1348T0 1354H-6V1462H580V1354H565Q503 1354 476 1335T449
1274Q449 1249 457 1220T481 1153L559 958Q585 893 604 833T631 731Q637 759 652 798T684 881L770 1106Q783 1141 791 1166T803 1210T809 1244T811 1272Q811 1314 783 1334T686 1354H680V1462H1106V1354H1100Q1074 1354 1054 1347T1017 1322T982 1273T944 1194L733
698H1001V578H715V459H1001V338H715V236Q715 187 728 161T764 124T818 111T883 109H930V0H195Z" />
<glyph unicode="&#xa6;" glyph-name="brokenbar" horiz-adv-x="1145" d="M645 737H498V1556H645V737ZM645 -492H498V328H645V-492Z" />
<glyph unicode="&#xa7;" glyph-name="section" horiz-adv-x="1114" d="M565 -231Q450 -231 374 -208T252 -147T187 -63T168 31Q168 71 181 101T219 151T276 182T350 193Q350 125 365 68T411 -32T486 -97T592 -121Q691 -121 746 -67T801 78Q801 120 789 152T739
218T632 291T449 387Q364 429 304 472T206 561T151 659T133 772Q133 841 170 896T266 983Q231 1020 205 1081T178 1227Q178 1305 208 1366T292 1470T420 1534T582 1556Q672 1556 740 1539T855 1490T924 1417T948 1323Q948 1260 898 1218T754 1176Q754 1221 746
1268T718 1355T662 1419T573 1444Q487 1444 435 1394T383 1251Q383 1202 399 1169T447 1109T524 1060T627 1010Q735 958 812 912T939 818T1012 717T1036 598Q1036 561 1026 525T998 457T956 399T905 356Q939 313 958 255T977 137Q977 56 951 -12T874 -128T745 -204T565
-231ZM836 526Q836 561 825 592T786 654T710 718T586 788Q518 820 458 850T348 915Q333 898 324 875T315 825Q315 783 329 750T377 687T466 625T604 553Q670 519 719 493T809 438Q820 454 828 476T836 526Z" />
<glyph unicode="&#xa8;" glyph-name="dieresis" horiz-adv-x="1182" d="M258 1409Q258 1444 268 1468T294 1508T333 1529T379 1536Q403 1536 425 1530T464 1508T491 1469T502 1409Q502 1375 492 1351T464 1311T425 1289T379 1282Q355 1282 333 1289T295 1311T268
1350T258 1409ZM678 1409Q678 1444 688 1468T715 1508T754 1529T801 1536Q824 1536 845 1530T884 1508T911 1469T922 1409Q922 1375 912 1351T884 1311T846 1289T801 1282Q776 1282 754 1289T715 1311T688 1350T678 1409Z" />
<glyph unicode="&#xa9;" glyph-name="copyright" horiz-adv-x="1731" d="M113 731Q113 835 140 931T215 1111T332 1264T484 1382T664 1458T864 1485Q968 1485 1064 1458T1244 1382T1397 1264T1515 1112T1591 932T1618 731Q1618 627 1591 531T1515 352T1397 200T1245
82T1065 7T864 -20Q760 -20 664 6T485 82T333 199T216 351T140 531T113 731ZM225 731Q225 643 248 562T312 409T412 280T542 180T694 115T864 92Q953 92 1035 115T1188 179T1317 279T1417 409T1482 561T1505 731Q1505 819 1482 901T1418 1054T1318 1184T1188 1284T1035
1349T864 1372Q776 1372 695 1349T542 1285T413 1185T313 1055T248 902T225 731ZM901 365Q948 365 988 377T1060 409T1115 454T1153 504Q1165 495 1173 479T1182 440Q1182 412 1163 383T1105 330T1009 291T874 276Q772 276 696 309T568 402T491 546T465 733Q465
833 493 916T576 1059T713 1152T903 1186Q974 1186 1026 1175T1114 1144T1166 1098T1184 1040Q1184 1018 1173 1000T1143 970T1099 951T1044 944Q1044 973 1037 1000T1012 1050T968 1086T899 1100Q827 1100 777 1076T694 1005T648 890T633 733Q633 556 702 461T901
365Z" />
<glyph unicode="&#xaa;" glyph-name="ordfeminine" horiz-adv-x="860" d="M295 991Q295 937 318 915T373 893Q436 893 467 932T498 1034V1118L451 1116Q366 1113 331 1082T295 991ZM416 1384Q391 1384 376 1375T353 1348T341 1307T338 1257Q232 1257 174 1277T115
1346Q115 1381 139 1405T204 1444T301 1466T420 1473Q575 1473 652 1425T729 1260V958Q729 913 748 897T817 881V791H578L528 891H514Q496 869 473 849T422 812T359 787T283 778Q179 778 119 831T59 987Q59 1089 145 1137T406 1194L498 1198V1253Q498 1282 495
1306T484 1348T459 1374T416 1384Z" />
<glyph unicode="&#xab;" glyph-name="guillemotleft" horiz-adv-x="1135" d="M133 606L446 963H590L383 553L590 143H446L133 500V606ZM545 606L858 963H1001L795 553L1001 143H858L545 500V606Z" />
<glyph unicode="&#xac;" glyph-name="logicalnot" horiz-adv-x="1145" d="M1012 805V293H864V659H133V805H1012Z" />
<glyph unicode="&#xad;" glyph-name="uni00AD" horiz-adv-x="635" d="M51 451V666H584V451H51Z" />
<glyph unicode="&#xae;" glyph-name="registered" horiz-adv-x="1731" d="M477 358H504Q524 358 542 360T574 370T596 392T604 430V1030Q604 1054 596 1068T574 1090T542 1100T504 1102H477V1174H846Q1198 1174 1198 930Q1198 881 1182 844T1140 780T1081 735T1012
705L1194 412Q1204 395 1213 385T1236 368T1266 360T1309 358V289H1092L866 670H758V430Q760 406 768 392T789 371T820 361T858 358H887V289H477V358ZM758 748H844Q899 748 936 759T995 792T1026 848T1036 928Q1036 973 1025 1005T991 1056T930 1085T838 1094H758V748ZM113
731Q113 835 140 931T215 1111T332 1264T484 1382T664 1458T864 1485Q968 1485 1064 1458T1244 1382T1397 1264T1515 1112T1591 932T1618 731Q1618 627 1591 531T1515 352T1397 200T1245 82T1065 7T864 -20Q760 -20 664 6T485 82T333 199T216 351T140 531T113 731ZM225
731Q225 643 248 562T312 409T412 280T542 180T694 115T864 92Q953 92 1035 115T1188 179T1317 279T1417 409T1482 561T1505 731Q1505 819 1482 901T1418 1054T1318 1184T1188 1284T1035 1349T864 1372Q776 1372 695 1349T542 1285T413 1185T313 1055T248 902T225
731Z" />
<glyph unicode="&#xaf;" glyph-name="overscore" horiz-adv-x="940" d="M950 1556H-10V1677H950V1556Z" />
<glyph unicode="&#xb0;" glyph-name="degree" horiz-adv-x="819" d="M98 1151Q98 1216 122 1272T189 1371T287 1437T408 1462Q473 1462 529 1438T628 1371T694 1273T719 1151Q719 1087 695 1031T628 932T530 866T408 842Q344 842 288 866T189 932T123 1030T98
1151ZM240 1151Q240 1117 253 1086T289 1032T342 995T408 981Q444 981 475 994T529 1031T565 1086T578 1151Q578 1187 565 1218T529 1273T475 1309T408 1323Q373 1323 343 1310T289 1273T253 1219T240 1151Z" />
<glyph unicode="&#xb1;" glyph-name="plusminus" horiz-adv-x="1145" d="M1012 0H133V145H1012V0ZM645 659V293H498V659H133V805H498V1171H645V805H1012V659H645Z" />
<glyph unicode="&#xb2;" glyph-name="twosuperior" horiz-adv-x="819" d="M698 1264Q698 1219 686 1179T640 1095T550 999T403 877L236 745H563Q607 745 625 764T649 813L659 868H735L727 586H76V733L301 922Q354 966 388 1007T443 1089T471 1169T479 1251Q479
1317 458 1354T383 1391Q348 1391 327 1373T295 1325T280 1260T276 1188Q242 1188 209 1195T150 1216T108 1254T92 1311Q92 1348 111 1379T167 1434T258 1470T383 1483Q466 1483 525 1468T623 1424T680 1355T698 1264Z" />
<glyph unicode="&#xb3;" glyph-name="threesuperior" horiz-adv-x="819" d="M479 1260Q479 1323 458 1357T383 1391Q351 1391 330 1377T296 1337T278 1280T272 1212Q231 1212 198 1216T142 1229T107 1256T94 1300Q94 1338 113 1371T169 1429T261 1468T387 1483Q458
1483 515 1469T613 1429T676 1366T698 1280Q698 1190 642 1134T489 1053V1042Q535 1035 579 1024T657 991T712 934T733 842Q733 767 695 716T599 633T471 587T338 573Q254 573 187 588T80 623V729Q102 720 130 711T188 695T251 683T313 678Q411 678 465 717T520
846Q520 915 465 952T297 989H229V1085H297Q335 1085 368 1097T426 1133T465 1188T479 1260Z" />
<glyph unicode="&#xb4;" glyph-name="acute" horiz-adv-x="1182" d="M330 1268Q352 1297 379 1335T435 1413T487 1494T528 1569H850V1548Q831 1521 787 1481T689 1396T576 1311T469 1241H330V1268Z" />
<glyph unicode="&#xb5;" glyph-name="mu" horiz-adv-x="1362" d="M573 -20Q488 -20 428 11T328 100Q328 15 335 -57T365 -183T431 -270T547 -313Q547 -352 534 -384T497 -441T437 -478T358 -492Q320 -492 285 -478T224 -433T182 -350T166 -223Q166 -162 169 -96T176
52T185 233T190 461V1098H502V422Q502 367 509 318T534 233T582 175T657 154Q700 154 734 177T793 241T831 341T844 471V1098H1155V283Q1155 189 1189 149T1294 109H1309V0H1130Q1025 0 958 49T864 178H854Q830 133 804 96T744 34T669 -6T573 -20Z" />
<glyph unicode="&#xb6;" glyph-name="paragraph" horiz-adv-x="1284" d="M860 1430H688V-227H346V-119H373Q408 -119 438 -115T491 -95T527 -50T541 27V791H395Q305 791 245 823T149 911T98 1039T82 1192Q82 1274 99 1341T154 1456T252 1530T399 1556H1202V1448H1176Q1141
1448 1111 1443T1057 1423T1021 1378T1008 1300V27Q1008 -21 1021 -50T1057 -94T1110 -114T1176 -119H1202V-227H860V1430Z" />
<glyph unicode="&#xb7;" glyph-name="middot" horiz-adv-x="623" d="M143 727Q143 774 156 805T191 856T245 883T311 891Q345 891 375 883T429 856T465 806T479 727Q479 681 466 650T429 599T376 572T311 563Q276 563 245 571T192 599T156 649T143 727Z" />
<glyph unicode="&#xb8;" glyph-name="cedilla" horiz-adv-x="682" d="M571 -258Q571 -312 550 -355T491 -429T400 -476T281 -492Q265 -492 242 -491T194 -486T145 -479T102 -469V-344Q140 -352 177 -356T242 -360Q300 -360 333 -340T367 -266Q367 -236 356 -217T323
-187T274 -170T213 -162L256 18H373L352 -70Q402 -74 442 -88T511 -127T555 -184T571 -258Z" />
<glyph unicode="&#xb9;" glyph-name="onesuperior" horiz-adv-x="819" d="M528 1473V756Q528 730 535 715T556 691T586 681T623 678H707V588H129V678H233Q253 678 269 680T299 691T319 714T326 756V1337Q278 1280 241 1245T166 1210Q137 1210 117 1239T96 1311Q133
1320 178 1340T285 1405L377 1473H528Z" />
<glyph unicode="&#xba;" glyph-name="ordmasculine" horiz-adv-x="895" d="M311 1126Q311 1005 341 943T449 881Q524 881 555 943T586 1126Q586 1247 554 1306T446 1366Q371 1366 341 1307T311 1126ZM823 1126Q823 950 728 864T446 778Q268 778 170 864T72 1126Q72
1302 168 1387T451 1473Q537 1473 606 1452T723 1387T797 1279T823 1126Z" />
<glyph unicode="&#xbb;" glyph-name="guillemotright" horiz-adv-x="1135" d="M1001 500L688 143H545L752 553L545 963H688L1001 606V500ZM590 500L276 143H133L340 553L133 963H276L590 606V500Z" />
<glyph unicode="&#xbc;" glyph-name="onequarter" horiz-adv-x="1720" d="M699 1473V756Q699 730 706 715T727 691T757 681T794 678H878V588H300V678H404Q424 678 440 680T470 691T490 714T497 756V1337Q449 1280 412 1245T337 1210Q308 1210 288 1239T267 1311Q304
1320 349 1340T456 1405L548 1473H699ZM578 0H418L1149 1462H1307L578 0ZM1522 240V169Q1522 143 1529 128T1548 104T1575 94T1608 91H1649V1H1178V91H1235Q1252 91 1267 93T1293 104T1312 127T1319 169V240H930V322L1337 886H1522V349H1681V240H1522ZM1319 595Q1319
627 1321 658T1329 728Q1321 711 1312 695T1298 670L1065 349H1319V595Z" />
<glyph unicode="&#xbd;" glyph-name="onehalf" horiz-adv-x="1720" d="M699 1473V756Q699 730 706 715T727 691T757 681T794 678H878V588H300V678H404Q424 678 440 680T470 691T490 714T497 756V1337Q449 1280 412 1245T337 1210Q308 1210 288 1239T267 1311Q304
1320 349 1340T456 1405L548 1473H699ZM537 0H377L1108 1462H1266L537 0ZM1628 679Q1628 634 1616 594T1570 510T1480 414T1333 292L1166 160H1493Q1537 160 1555 179T1579 228L1589 283H1665L1657 1H1006V148L1231 337Q1284 381 1318 422T1373 504T1401 584T1409
666Q1409 732 1388 769T1313 806Q1278 806 1257 788T1225 740T1210 675T1206 603Q1172 603 1139 610T1080 631T1038 669T1022 726Q1022 763 1041 794T1097 849T1188 885T1313 898Q1396 898 1455 883T1553 839T1610 770T1628 679Z" />
<glyph unicode="&#xbe;" glyph-name="threequarters" horiz-adv-x="1720" d="M479 1260Q479 1323 458 1357T383 1391Q351 1391 330 1377T296 1337T278 1280T272 1212Q231 1212 198 1216T142 1229T107 1256T94 1300Q94 1338 113 1371T169 1429T261 1468T387 1483Q458
1483 515 1469T613 1429T676 1366T698 1280Q698 1190 642 1134T489 1053V1042Q535 1035 579 1024T657 991T712 934T733 842Q733 767 695 716T599 633T471 587T338 573Q254 573 187 588T80 623V729Q102 720 130 711T188 695T251 683T313 678Q411 678 465 717T520
846Q520 915 465 952T297 989H229V1085H297Q335 1085 368 1097T426 1133T465 1188T479 1260ZM619 0H459L1190 1462H1348L619 0ZM1522 240V169Q1522 143 1529 128T1548 104T1575 94T1608 91H1649V1H1178V91H1235Q1252 91 1267 93T1293 104T1312 127T1319 169V240H930V322L1337
886H1522V349H1681V240H1522ZM1319 595Q1319 627 1321 658T1329 728Q1321 711 1312 695T1298 670L1065 349H1319V595Z" />
<glyph unicode="&#xbf;" glyph-name="questiondown" horiz-adv-x="1126" d="M113 -14Q113 68 138 133T214 252T341 351T520 438L561 625H686L727 373Q640 338 584 291T495 189T451 74T438 -47Q438 -96 447 -136T475 -206T525 -252T598 -268Q644 -268 675 -248T726
-192T753 -110T762 -10Q825 -10 878 -19T969 -46T1029 -91T1051 -154Q1051 -204 1025 -247T946 -322T810 -372T614 -391Q506 -391 414 -366T256 -292T151 -173T113 -14ZM795 944Q795 897 782 866T747 815T693 788T627 780Q593 780 563 788T509 815T473 865T459
944Q459 990 472 1021T509 1072T562 1099T627 1108Q662 1108 693 1100T746 1072T782 1022T795 944Z" />
<glyph unicode="&#xc0;" glyph-name="Agrave" horiz-adv-x="1542" d="M446 481L387 305Q379 280 371 247T362 188Q362 168 370 153T391 129T420 114T455 109H541V0H8V109H33Q60 109 82 115T124 137T161 183T197 258L641 1462H922L1350 256Q1365 213 1381 185T1417
140T1459 116T1505 109H1542V0H866V109H946Q961 109 977 113T1005 127T1026 152T1034 188Q1034 213 1028 236T1016 276L944 481H446ZM795 942Q784 977 773 1015T750 1094T728 1173T709 1249Q700 1218 688 1181T663 1105T636 1027T610 952L489 606H903L795 942ZM758
1579Q710 1607 652 1648T539 1734T440 1818T377 1886V1907H698Q714 1873 739 1833T791 1752T847 1673T897 1606V1579H758Z" />
<glyph unicode="&#xc1;" glyph-name="Aacute" horiz-adv-x="1542" d="M446 481L387 305Q379 280 371 247T362 188Q362 168 370 153T391 129T420 114T455 109H541V0H8V109H33Q60 109 82 115T124 137T161 183T197 258L641 1462H922L1350 256Q1365 213 1381 185T1417
140T1459 116T1505 109H1542V0H866V109H946Q961 109 977 113T1005 127T1026 152T1034 188Q1034 213 1028 236T1016 276L944 481H446ZM795 942Q784 977 773 1015T750 1094T728 1173T709 1249Q700 1218 688 1181T663 1105T636 1027T610 952L489 606H903L795 942ZM641
1606Q663 1635 690 1673T746 1751T798 1832T839 1907H1161V1886Q1142 1859 1098 1819T1000 1734T887 1649T780 1579H641V1606Z" />
<glyph unicode="&#xc2;" glyph-name="Acircumflex" horiz-adv-x="1542" d="M446 481L387 305Q379 280 371 247T362 188Q362 168 370 153T391 129T420 114T455 109H541V0H8V109H33Q60 109 82 115T124 137T161 183T197 258L641 1462H922L1350 256Q1365 213 1381
185T1417 140T1459 116T1505 109H1542V0H866V109H946Q961 109 977 113T1005 127T1026 152T1034 188Q1034 213 1028 236T1016 276L944 481H446ZM795 942Q784 977 773 1015T750 1094T728 1173T709 1249Q700 1218 688 1181T663 1105T636 1027T610 952L489 606H903L795
942ZM415 1606Q439 1635 471 1673T536 1751T596 1832T641 1907H917Q933 1873 961 1833T1022 1752T1086 1673T1142 1606V1579H1001Q980 1596 951 1619T891 1667T831 1717T778 1763Q755 1742 726 1717T666 1667T607 1619T557 1579H415V1606Z" />
<glyph unicode="&#xc3;" glyph-name="Atilde" horiz-adv-x="1542" d="M446 481L387 305Q379 280 371 247T362 188Q362 168 370 153T391 129T420 114T455 109H541V0H8V109H33Q60 109 82 115T124 137T161 183T197 258L641 1462H922L1350 256Q1365 213 1381 185T1417
140T1459 116T1505 109H1542V0H866V109H946Q961 109 977 113T1005 127T1026 152T1034 188Q1034 213 1028 236T1016 276L944 481H446ZM795 942Q784 977 773 1015T750 1094T728 1173T709 1249Q700 1218 688 1181T663 1105T636 1027T610 952L489 606H903L795 942ZM942
1774Q964 1774 981 1783T1011 1807T1031 1841T1042 1882H1175Q1172 1820 1152 1765T1099 1669T1020 1603T919 1579Q864 1579 820 1599T737 1643T665 1688T598 1708Q575 1708 558 1699T528 1675T508 1641T497 1600H364Q367 1662 387 1717T441 1813T521 1879T622
1903Q677 1903 721 1883T804 1839T876 1794T942 1774Z" />
<glyph unicode="&#xc4;" glyph-name="Adieresis" horiz-adv-x="1542" d="M446 481L387 305Q379 280 371 247T362 188Q362 168 370 153T391 129T420 114T455 109H541V0H8V109H33Q60 109 82 115T124 137T161 183T197 258L641 1462H922L1350 256Q1365 213 1381 185T1417
140T1459 116T1505 109H1542V0H866V109H946Q961 109 977 113T1005 127T1026 152T1034 188Q1034 213 1028 236T1016 276L944 481H446ZM795 942Q784 977 773 1015T750 1094T728 1173T709 1249Q700 1218 688 1181T663 1105T636 1027T610 952L489 606H903L795 942ZM436
1747Q436 1782 446 1806T472 1846T511 1867T557 1874Q581 1874 603 1868T642 1846T669 1807T680 1747Q680 1713 670 1689T642 1649T603 1627T557 1620Q533 1620 511 1627T473 1649T446 1688T436 1747ZM856 1747Q856 1782 866 1806T893 1846T932 1867T979 1874Q1002
1874 1023 1868T1062 1846T1089 1807T1100 1747Q1100 1713 1090 1689T1062 1649T1024 1627T979 1620Q954 1620 932 1627T893 1649T866 1688T856 1747Z" />
<glyph unicode="&#xc5;" glyph-name="Aring" horiz-adv-x="1542" d="M446 481L387 305Q379 280 371 247T362 188Q362 168 370 153T391 129T420 114T455 109H541V0H8V109H33Q60 109 82 115T124 137T161 183T197 258L641 1462H922L1350 256Q1365 213 1381 185T1417
140T1459 116T1505 109H1542V0H866V109H946Q961 109 977 113T1005 127T1026 152T1034 188Q1034 213 1028 236T1016 276L944 481H446ZM795 942Q784 977 773 1015T750 1094T728 1173T709 1249Q700 1218 688 1181T663 1105T636 1027T610 952L489 606H903L795 942ZM1024
1573Q1024 1518 1005 1477T953 1407T874 1365T778 1350Q727 1350 682 1364T604 1407T551 1476T532 1573Q532 1627 551 1669T603 1739T682 1781T778 1796Q829 1796 874 1782T952 1739T1005 1669T1024 1573ZM899 1573Q899 1603 890 1624T864 1658T825 1677T778 1683Q753
1683 731 1677T693 1658T667 1624T657 1573Q657 1543 666 1522T692 1488T731 1468T778 1462Q803 1462 825 1468T863 1487T889 1522T899 1573Z" />
<glyph unicode="&#xc6;" glyph-name="AE" horiz-adv-x="2034" d="M1270 125H1679Q1710 125 1732 136T1770 169T1795 218T1810 281L1827 377H1968L1954 0H754V109H840Q896 109 920 143T944 231V469H473L387 297Q370 265 362 236T354 188Q354 146 385 128T477 109H512V0H0V109H25Q78
109 120 147T207 268L782 1343L647 1354V1462H1890L1898 1085H1755L1745 1182Q1737 1257 1707 1297T1614 1337H1270V825H1755V702H1270V125ZM924 1337L539 592H944V1337H924Z" />
<glyph unicode="&#xc7;" glyph-name="Ccedilla" horiz-adv-x="1368" d="M870 143Q945 143 1003 160T1108 206T1188 269T1249 338Q1265 326 1274 301T1284 250Q1284 207 1261 160T1184 72T1041 6T821 -20Q643 -20 510 34T289 187T157 425T113 733Q113 899 158 1037T291
1274T512 1428T819 1483Q937 1483 1024 1465T1170 1414T1257 1339T1286 1245Q1286 1207 1270 1175T1221 1118T1140 1081T1030 1067Q1030 1118 1019 1168T982 1260T912 1326T805 1352Q708 1352 641 1311T534 1191T475 997T457 733Q457 585 479 474T550 290T677 180T870
143ZM962 -258Q962 -312 941 -355T882 -429T791 -476T672 -492Q656 -492 633 -491T585 -486T536 -479T493 -469V-344Q531 -352 568 -356T633 -360Q691 -360 724 -340T758 -266Q758 -236 747 -217T714 -187T665 -170T604 -162L647 18H764L743 -70Q793 -74 833 -88T902
-127T946 -184T962 -258Z" />
<glyph unicode="&#xc8;" glyph-name="Egrave" horiz-adv-x="1337" d="M573 125H983Q1014 125 1036 136T1074 169T1099 218T1114 281L1130 377H1272L1257 0H57V109H143Q165 109 184 113T217 129T240 166T248 231V1221Q248 1265 240 1291T218 1331T185 1349T143
1354H57V1462H1194L1202 1085H1059L1049 1182Q1041 1257 1011 1297T918 1337H573V825H1059V702H573V125ZM689 1579Q641 1607 583 1648T470 1734T371 1818T308 1886V1907H629Q645 1873 670 1833T722 1752T778 1673T828 1606V1579H689Z" />
<glyph unicode="&#xc9;" glyph-name="Eacute" horiz-adv-x="1337" d="M573 125H983Q1014 125 1036 136T1074 169T1099 218T1114 281L1130 377H1272L1257 0H57V109H143Q165 109 184 113T217 129T240 166T248 231V1221Q248 1265 240 1291T218 1331T185 1349T143
1354H57V1462H1194L1202 1085H1059L1049 1182Q1041 1257 1011 1297T918 1337H573V825H1059V702H573V125ZM523 1606Q545 1635 572 1673T628 1751T680 1832T721 1907H1043V1886Q1024 1859 980 1819T882 1734T769 1649T662 1579H523V1606Z" />
<glyph unicode="&#xca;" glyph-name="Ecircumflex" horiz-adv-x="1337" d="M573 125H983Q1014 125 1036 136T1074 169T1099 218T1114 281L1130 377H1272L1257 0H57V109H143Q165 109 184 113T217 129T240 166T248 231V1221Q248 1265 240 1291T218 1331T185 1349T143
1354H57V1462H1194L1202 1085H1059L1049 1182Q1041 1257 1011 1297T918 1337H573V825H1059V702H573V125ZM288 1606Q312 1635 344 1673T409 1751T469 1832T514 1907H790Q806 1873 834 1833T895 1752T959 1673T1015 1606V1579H874Q853 1596 824 1619T764 1667T704
1717T651 1763Q628 1742 599 1717T539 1667T480 1619T430 1579H288V1606Z" />
<glyph unicode="&#xcb;" glyph-name="Edieresis" horiz-adv-x="1337" d="M573 125H983Q1014 125 1036 136T1074 169T1099 218T1114 281L1130 377H1272L1257 0H57V109H143Q165 109 184 113T217 129T240 166T248 231V1221Q248 1265 240 1291T218 1331T185 1349T143
1354H57V1462H1194L1202 1085H1059L1049 1182Q1041 1257 1011 1297T918 1337H573V825H1059V702H573V125ZM356 1747Q356 1782 366 1806T392 1846T431 1867T477 1874Q501 1874 523 1868T562 1846T589 1807T600 1747Q600 1713 590 1689T562 1649T523 1627T477 1620Q453
1620 431 1627T393 1649T366 1688T356 1747ZM776 1747Q776 1782 786 1806T813 1846T852 1867T899 1874Q922 1874 943 1868T982 1846T1009 1807T1020 1747Q1020 1713 1010 1689T982 1649T944 1627T899 1620Q874 1620 852 1627T813 1649T786 1688T776 1747Z" />
<glyph unicode="&#xcc;" glyph-name="Igrave" horiz-adv-x="821" d="M57 0V109H143Q166 109 185 113T218 132T240 172T248 242V1220Q248 1264 240 1290T218 1330T185 1348T143 1353H57V1462H764V1353H678Q656 1353 637 1349T603 1330T581 1290T573 1220V242Q573
198 581 172T603 132T636 114T678 109H764V0H57ZM429 1579Q381 1607 323 1648T210 1734T111 1818T48 1886V1907H369Q385 1873 410 1833T462 1752T518 1673T568 1606V1579H429Z" />
<glyph unicode="&#xcd;" glyph-name="Iacute" horiz-adv-x="821" d="M57 0V109H143Q166 109 185 113T218 132T240 172T248 242V1220Q248 1264 240 1290T218 1330T185 1348T143 1353H57V1462H764V1353H678Q656 1353 637 1349T603 1330T581 1290T573 1220V242Q573
198 581 172T603 132T636 114T678 109H764V0H57ZM253 1606Q275 1635 302 1673T358 1751T410 1832T451 1907H773V1886Q754 1859 710 1819T612 1734T499 1649T392 1579H253V1606Z" />
<glyph unicode="&#xce;" glyph-name="Icircumflex" horiz-adv-x="821" d="M57 0V109H143Q166 109 185 113T218 132T240 172T248 242V1220Q248 1264 240 1290T218 1330T185 1348T143 1353H57V1462H764V1353H678Q656 1353 637 1349T603 1330T581 1290T573 1220V242Q573
198 581 172T603 132T636 114T678 109H764V0H57ZM48 1606Q72 1635 104 1673T169 1751T229 1832T274 1907H550Q566 1873 594 1833T655 1752T719 1673T775 1606V1579H634Q613 1596 584 1619T524 1667T464 1717T411 1763Q388 1742 359 1717T299 1667T240 1619T190
1579H48V1606Z" />
<glyph unicode="&#xcf;" glyph-name="Idieresis" horiz-adv-x="821" d="M57 0V109H143Q166 109 185 113T218 132T240 172T248 242V1220Q248 1264 240 1290T218 1330T185 1348T143 1353H57V1462H764V1353H678Q656 1353 637 1349T603 1330T581 1290T573 1220V242Q573
198 581 172T603 132T636 114T678 109H764V0H57ZM79 1747Q79 1782 89 1806T115 1846T154 1867T200 1874Q224 1874 246 1868T285 1846T312 1807T323 1747Q323 1713 313 1689T285 1649T246 1627T200 1620Q176 1620 154 1627T116 1649T89 1688T79 1747ZM499 1747Q499
1782 509 1806T536 1846T575 1867T622 1874Q645 1874 666 1868T705 1846T732 1807T743 1747Q743 1713 733 1689T705 1649T667 1627T622 1620Q597 1620 575 1627T536 1649T509 1688T499 1747Z" />
<glyph unicode="&#xd0;" glyph-name="Eth" horiz-adv-x="1571" d="M1458 758Q1458 590 1412 451T1275 211T1048 56T733 0H57V109H143Q166 109 185 113T218 132T240 172T248 242V702H78V827H248V1229Q248 1270 240 1294T218 1332T184 1349T143 1354H57V1462H733Q903
1462 1037 1418T1265 1285T1408 1064T1458 758ZM1112 758Q1112 1051 1005 1194T688 1337H571V827H827V702H571V127H686Q791 127 871 170T1004 296T1085 494T1112 758Z" />
<glyph unicode="&#xd1;" glyph-name="Ntilde" horiz-adv-x="1614" d="M1200 0L401 1128V242Q401 198 409 172T432 132T465 114T506 109H592V0H57V109H143Q165 109 184 113T217 132T240 172T248 242V1229Q248 1270 240 1294T217 1332T183 1349T143 1354H57V1462H512L1235
440V1229Q1235 1270 1227 1294T1204 1332T1170 1349T1130 1354H1044V1462H1579V1354H1493Q1472 1354 1453 1350T1420 1331T1397 1291T1389 1221V0H1200ZM998 1774Q1020 1774 1037 1783T1067 1807T1087 1841T1098 1882H1231Q1228 1820 1208 1765T1155 1669T1076
1603T975 1579Q920 1579 876 1599T793 1643T721 1688T654 1708Q631 1708 614 1699T584 1675T564 1641T553 1600H420Q423 1662 443 1717T497 1813T577 1879T678 1903Q733 1903 777 1883T860 1839T932 1794T998 1774Z" />
<glyph unicode="&#xd2;" glyph-name="Ograve" horiz-adv-x="1612" d="M1499 733Q1499 564 1454 425T1320 187T1103 34T807 -20Q632 -20 502 34T285 187T156 425T113 735Q113 905 156 1043T285 1280T502 1431T809 1485Q975 1485 1103 1432T1320 1280T1453 1043T1499
733ZM457 733Q457 586 476 471T537 277T645 155T807 113Q903 113 969 155T1077 276T1136 471T1155 733Q1155 880 1137 995T1077 1189T970 1310T809 1352Q713 1352 646 1311T537 1190T476 995T457 733ZM813 1579Q765 1607 707 1648T594 1734T495 1818T432 1886V1907H753Q769
1873 794 1833T846 1752T902 1673T952 1606V1579H813Z" />
<glyph unicode="&#xd3;" glyph-name="Oacute" horiz-adv-x="1612" d="M1499 733Q1499 564 1454 425T1320 187T1103 34T807 -20Q632 -20 502 34T285 187T156 425T113 735Q113 905 156 1043T285 1280T502 1431T809 1485Q975 1485 1103 1432T1320 1280T1453 1043T1499
733ZM457 733Q457 586 476 471T537 277T645 155T807 113Q903 113 969 155T1077 276T1136 471T1155 733Q1155 880 1137 995T1077 1189T970 1310T809 1352Q713 1352 646 1311T537 1190T476 995T457 733ZM666 1606Q688 1635 715 1673T771 1751T823 1832T864 1907H1186V1886Q1167
1859 1123 1819T1025 1734T912 1649T805 1579H666V1606Z" />
<glyph unicode="&#xd4;" glyph-name="Ocircumflex" horiz-adv-x="1612" d="M1499 733Q1499 564 1454 425T1320 187T1103 34T807 -20Q632 -20 502 34T285 187T156 425T113 735Q113 905 156 1043T285 1280T502 1431T809 1485Q975 1485 1103 1432T1320 1280T1453
1043T1499 733ZM457 733Q457 586 476 471T537 277T645 155T807 113Q903 113 969 155T1077 276T1136 471T1155 733Q1155 880 1137 995T1077 1189T970 1310T809 1352Q713 1352 646 1311T537 1190T476 995T457 733ZM440 1606Q464 1635 496 1673T561 1751T621 1832T666
1907H942Q958 1873 986 1833T1047 1752T1111 1673T1167 1606V1579H1026Q1005 1596 976 1619T916 1667T856 1717T803 1763Q780 1742 751 1717T691 1667T632 1619T582 1579H440V1606Z" />
<glyph unicode="&#xd5;" glyph-name="Otilde" horiz-adv-x="1612" d="M1499 733Q1499 564 1454 425T1320 187T1103 34T807 -20Q632 -20 502 34T285 187T156 425T113 735Q113 905 156 1043T285 1280T502 1431T809 1485Q975 1485 1103 1432T1320 1280T1453 1043T1499
733ZM457 733Q457 586 476 471T537 277T645 155T807 113Q903 113 969 155T1077 276T1136 471T1155 733Q1155 880 1137 995T1077 1189T970 1310T809 1352Q713 1352 646 1311T537 1190T476 995T457 733ZM975 1774Q997 1774 1014 1783T1044 1807T1064 1841T1075 1882H1208Q1205
1820 1185 1765T1132 1669T1053 1603T952 1579Q897 1579 853 1599T770 1643T698 1688T631 1708Q608 1708 591 1699T561 1675T541 1641T530 1600H397Q400 1662 420 1717T474 1813T554 1879T655 1903Q710 1903 754 1883T837 1839T909 1794T975 1774Z" />
<glyph unicode="&#xd6;" glyph-name="Odieresis" horiz-adv-x="1612" d="M1499 733Q1499 564 1454 425T1320 187T1103 34T807 -20Q632 -20 502 34T285 187T156 425T113 735Q113 905 156 1043T285 1280T502 1431T809 1485Q975 1485 1103 1432T1320 1280T1453 1043T1499
733ZM457 733Q457 586 476 471T537 277T645 155T807 113Q903 113 969 155T1077 276T1136 471T1155 733Q1155 880 1137 995T1077 1189T970 1310T809 1352Q713 1352 646 1311T537 1190T476 995T457 733ZM463 1747Q463 1782 473 1806T499 1846T538 1867T584 1874Q608
1874 630 1868T669 1846T696 1807T707 1747Q707 1713 697 1689T669 1649T630 1627T584 1620Q560 1620 538 1627T500 1649T473 1688T463 1747ZM883 1747Q883 1782 893 1806T920 1846T959 1867T1006 1874Q1029 1874 1050 1868T1089 1846T1116 1807T1127 1747Q1127
1713 1117 1689T1089 1649T1051 1627T1006 1620Q981 1620 959 1627T920 1649T893 1688T883 1747Z" />
<glyph unicode="&#xd7;" glyph-name="multiply" horiz-adv-x="1145" d="M571 631L270 328L166 432L467 735L166 1036L270 1139L571 838L872 1141L977 1036L674 733L977 430L874 328L571 631Z" />
<glyph unicode="&#xd8;" glyph-name="Oslash" horiz-adv-x="1612" d="M1499 733Q1499 564 1454 425T1320 187T1103 34T807 -20Q634 -20 504 33L442 -82H297L391 92Q251 188 182 352T113 735Q113 905 156 1043T285 1280T502 1431T809 1485Q894 1485 969 1470T1110
1427L1174 1546H1317L1221 1368Q1357 1272 1428 1110T1499 733ZM457 733Q457 605 471 503T516 324L1022 1266Q984 1308 931 1330T809 1352Q713 1352 646 1311T537 1190T476 995T457 733ZM1155 733Q1155 860 1141 961T1098 1141L592 197Q632 155 685 134T807 113Q903
113 969 155T1077 276T1136 471T1155 733Z" />
<glyph unicode="&#xd9;" glyph-name="Ugrave" horiz-adv-x="1530" d="M1497 1354H1409Q1388 1354 1369 1350T1336 1331T1313 1291T1305 1221V422Q1305 319 1276 237T1184 98T1024 11T793 -20Q659 -20 554 5T375 87T264 231T225 446V1229Q225 1270 217 1294T194
1332T161 1349T121 1354H33V1462H739V1354H653Q632 1354 613 1350T580 1331T557 1291T549 1221V430Q549 344 570 286T632 192T728 141T854 125Q922 125 977 142T1070 197T1130 291T1151 426V1229Q1151 1270 1143 1294T1121 1332T1087 1349T1047 1354H961V1462H1497V1354ZM813
1579Q765 1607 707 1648T594 1734T495 1818T432 1886V1907H753Q769 1873 794 1833T846 1752T902 1673T952 1606V1579H813Z" />
<glyph unicode="&#xda;" glyph-name="Uacute" horiz-adv-x="1530" d="M1497 1354H1409Q1388 1354 1369 1350T1336 1331T1313 1291T1305 1221V422Q1305 319 1276 237T1184 98T1024 11T793 -20Q659 -20 554 5T375 87T264 231T225 446V1229Q225 1270 217 1294T194
1332T161 1349T121 1354H33V1462H739V1354H653Q632 1354 613 1350T580 1331T557 1291T549 1221V430Q549 344 570 286T632 192T728 141T854 125Q922 125 977 142T1070 197T1130 291T1151 426V1229Q1151 1270 1143 1294T1121 1332T1087 1349T1047 1354H961V1462H1497V1354ZM643
1606Q665 1635 692 1673T748 1751T800 1832T841 1907H1163V1886Q1144 1859 1100 1819T1002 1734T889 1649T782 1579H643V1606Z" />
<glyph unicode="&#xdb;" glyph-name="Ucircumflex" horiz-adv-x="1530" d="M1497 1354H1409Q1388 1354 1369 1350T1336 1331T1313 1291T1305 1221V422Q1305 319 1276 237T1184 98T1024 11T793 -20Q659 -20 554 5T375 87T264 231T225 446V1229Q225 1270 217 1294T194
1332T161 1349T121 1354H33V1462H739V1354H653Q632 1354 613 1350T580 1331T557 1291T549 1221V430Q549 344 570 286T632 192T728 141T854 125Q922 125 977 142T1070 197T1130 291T1151 426V1229Q1151 1270 1143 1294T1121 1332T1087 1349T1047 1354H961V1462H1497V1354ZM454
1606Q478 1635 510 1673T575 1751T635 1832T680 1907H956Q972 1873 1000 1833T1061 1752T1125 1673T1181 1606V1579H1040Q1019 1596 990 1619T930 1667T870 1717T817 1763Q794 1742 765 1717T705 1667T646 1619T596 1579H454V1606Z" />
<glyph unicode="&#xdc;" glyph-name="Udieresis" horiz-adv-x="1530" d="M1497 1354H1409Q1388 1354 1369 1350T1336 1331T1313 1291T1305 1221V422Q1305 319 1276 237T1184 98T1024 11T793 -20Q659 -20 554 5T375 87T264 231T225 446V1229Q225 1270 217 1294T194
1332T161 1349T121 1354H33V1462H739V1354H653Q632 1354 613 1350T580 1331T557 1291T549 1221V430Q549 344 570 286T632 192T728 141T854 125Q922 125 977 142T1070 197T1130 291T1151 426V1229Q1151 1270 1143 1294T1121 1332T1087 1349T1047 1354H961V1462H1497V1354ZM494
1747Q494 1782 504 1806T530 1846T569 1867T615 1874Q639 1874 661 1868T700 1846T727 1807T738 1747Q738 1713 728 1689T700 1649T661 1627T615 1620Q591 1620 569 1627T531 1649T504 1688T494 1747ZM914 1747Q914 1782 924 1806T951 1846T990 1867T1037 1874Q1060
1874 1081 1868T1120 1846T1147 1807T1158 1747Q1158 1713 1148 1689T1120 1649T1082 1627T1037 1620Q1012 1620 990 1627T951 1649T924 1688T914 1747Z" />
<glyph unicode="&#xdd;" glyph-name="Yacute" horiz-adv-x="1419" d="M336 0V109H432Q457 109 478 112T516 127T541 165T551 233V518L172 1245Q157 1275 144 1296T114 1329T78 1348T27 1354H0V1462H686V1354H651Q589 1354 559 1329T528 1262Q528 1236 537 1206T559
1149L711 848Q743 783 763 733T801 635Q822 689 849 752T911 885L1030 1130Q1052 1175 1058 1205T1065 1253Q1065 1306 1032 1330T930 1354H883V1462H1419V1354H1380Q1354 1354 1336 1347T1301 1322T1267 1273T1225 1194L877 516V236Q877 191 886 166T910 128T946
112T991 109H1092V0H336ZM602 1606Q624 1635 651 1673T707 1751T759 1832T800 1907H1122V1886Q1103 1859 1059 1819T961 1734T848 1649T741 1579H602V1606Z" />
<glyph unicode="&#xde;" glyph-name="Thorn" horiz-adv-x="1307" d="M571 410H621Q697 410 750 429T836 489T885 595T901 752Q901 834 888 894T845 994T768 1053T651 1073H571V410ZM1245 760Q1245 668 1213 583T1109 433T922 330T641 291H571V231Q573 191 582
167T605 130T639 113T680 109H764V0H57V109H143Q166 109 185 113T218 132T240 172T248 242V1221Q248 1265 240 1291T218 1331T185 1349T143 1354H57V1462H764V1354H680Q659 1354 639 1350T604 1333T580 1296T571 1231V1194H686Q828 1192 933 1162T1107 1076T1211
941T1245 760Z" />
<glyph unicode="&#xdf;" glyph-name="germandbls" horiz-adv-x="1446" d="M205 1118Q205 1246 246 1334T358 1476T527 1553T737 1577Q879 1577 978 1540T1139 1431T1230 1252T1260 1006H1145Q1095 1006 1052 1000T976 978T924 936T905 868Q905 832 917 805T957
755T1027 708T1133 655Q1197 625 1241 588T1312 507T1352 418T1364 324Q1364 237 1337 173T1258 65T1131 1T961 -20Q868 -20 785 -2T635 55V303H745Q752 262 769 225T813 161T875 117T952 100Q1021 100 1061 136T1102 238Q1102 274 1093 304T1060 363T996 418T895
473Q820 508 771 548T692 635T650 731T637 834Q637 905 661 956T730 1042T836 1095T969 1118Q968 1212 953 1277T908 1384T838 1443T743 1462Q691 1462 649 1445T576 1393T530 1303T514 1174V0H12V109H100Q122 109 141 113T174 132T197 172T205 242V956H41V1098H205V1118Z"
/>
<glyph unicode="&#xe0;" glyph-name="agrave" horiz-adv-x="1227" d="M410 305Q410 217 438 173T526 129Q570 129 605 147T666 200T705 282T719 391V545L627 539Q566 536 524 520T457 474T421 403T410 305ZM592 999Q553 999 527 983T484 937T462 867T455 778Q317
778 248 809T178 915Q178 971 211 1011T302 1076T436 1112T600 1124Q708 1124 788 1106T922 1046T1003 939T1030 776V254Q1030 212 1036 184T1057 140T1095 116T1153 109H1161V0H780L737 141H719Q685 100 655 70T591 19T515 -10T414 -20Q346 -20 288 0T186 61T117
165T92 313Q92 480 206 560T551 647L719 653V766Q719 817 715 860T698 934T660 982T592 999ZM874 1241Q826 1269 768 1310T655 1396T556 1480T493 1548V1569H814Q830 1535 855 1495T907 1414T963 1335T1013 1268V1241H874Z" />
<glyph unicode="&#xe1;" glyph-name="aacute" horiz-adv-x="1227" d="M410 305Q410 217 438 173T526 129Q570 129 605 147T666 200T705 282T719 391V545L627 539Q566 536 524 520T457 474T421 403T410 305ZM592 999Q553 999 527 983T484 937T462 867T455 778Q317
778 248 809T178 915Q178 971 211 1011T302 1076T436 1112T600 1124Q708 1124 788 1106T922 1046T1003 939T1030 776V254Q1030 212 1036 184T1057 140T1095 116T1153 109H1161V0H780L737 141H719Q685 100 655 70T591 19T515 -10T414 -20Q346 -20 288 0T186 61T117
165T92 313Q92 480 206 560T551 647L719 653V766Q719 817 715 860T698 934T660 982T592 999ZM467 1268Q489 1297 516 1335T572 1413T624 1494T665 1569H987V1548Q968 1521 924 1481T826 1396T713 1311T606 1241H467V1268Z" />
<glyph unicode="&#xe2;" glyph-name="acircumflex" horiz-adv-x="1227" d="M410 305Q410 217 438 173T526 129Q570 129 605 147T666 200T705 282T719 391V545L627 539Q566 536 524 520T457 474T421 403T410 305ZM592 999Q553 999 527 983T484 937T462 867T455
778Q317 778 248 809T178 915Q178 971 211 1011T302 1076T436 1112T600 1124Q708 1124 788 1106T922 1046T1003 939T1030 776V254Q1030 212 1036 184T1057 140T1095 116T1153 109H1161V0H780L737 141H719Q685 100 655 70T591 19T515 -10T414 -20Q346 -20 288 0T186
61T117 165T92 313Q92 480 206 560T551 647L719 653V766Q719 817 715 860T698 934T660 982T592 999ZM256 1268Q280 1297 312 1335T377 1413T437 1494T482 1569H758Q774 1535 802 1495T863 1414T927 1335T983 1268V1241H842Q821 1258 792 1281T732 1329T672 1379T619
1425Q596 1404 567 1379T507 1329T448 1281T398 1241H256V1268Z" />
<glyph unicode="&#xe3;" glyph-name="atilde" horiz-adv-x="1227" d="M410 305Q410 217 438 173T526 129Q570 129 605 147T666 200T705 282T719 391V545L627 539Q566 536 524 520T457 474T421 403T410 305ZM592 999Q553 999 527 983T484 937T462 867T455 778Q317
778 248 809T178 915Q178 971 211 1011T302 1076T436 1112T600 1124Q708 1124 788 1106T922 1046T1003 939T1030 776V254Q1030 212 1036 184T1057 140T1095 116T1153 109H1161V0H780L737 141H719Q685 100 655 70T591 19T515 -10T414 -20Q346 -20 288 0T186 61T117
165T92 313Q92 480 206 560T551 647L719 653V766Q719 817 715 860T698 934T660 982T592 999ZM789 1436Q811 1436 828 1445T858 1469T878 1503T889 1544H1022Q1019 1482 999 1427T946 1331T867 1265T766 1241Q711 1241 667 1261T584 1305T512 1350T445 1370Q422
1370 405 1361T375 1337T355 1303T344 1262H211Q214 1324 234 1379T288 1475T368 1541T469 1565Q524 1565 568 1545T651 1501T723 1456T789 1436Z" />
<glyph unicode="&#xe4;" glyph-name="adieresis" horiz-adv-x="1227" d="M410 305Q410 217 438 173T526 129Q570 129 605 147T666 200T705 282T719 391V545L627 539Q566 536 524 520T457 474T421 403T410 305ZM592 999Q553 999 527 983T484 937T462 867T455 778Q317
778 248 809T178 915Q178 971 211 1011T302 1076T436 1112T600 1124Q708 1124 788 1106T922 1046T1003 939T1030 776V254Q1030 212 1036 184T1057 140T1095 116T1153 109H1161V0H780L737 141H719Q685 100 655 70T591 19T515 -10T414 -20Q346 -20 288 0T186 61T117
165T92 313Q92 480 206 560T551 647L719 653V766Q719 817 715 860T698 934T660 982T592 999ZM278 1409Q278 1444 288 1468T314 1508T353 1529T399 1536Q423 1536 445 1530T484 1508T511 1469T522 1409Q522 1375 512 1351T484 1311T445 1289T399 1282Q375 1282 353
1289T315 1311T288 1350T278 1409ZM698 1409Q698 1444 708 1468T735 1508T774 1529T821 1536Q844 1536 865 1530T904 1508T931 1469T942 1409Q942 1375 932 1351T904 1311T866 1289T821 1282Q796 1282 774 1289T735 1311T708 1350T698 1409Z" />
<glyph unicode="&#xe5;" glyph-name="aring" horiz-adv-x="1227" d="M410 305Q410 217 438 173T526 129Q570 129 605 147T666 200T705 282T719 391V545L627 539Q566 536 524 520T457 474T421 403T410 305ZM592 999Q553 999 527 983T484 937T462 867T455 778Q317
778 248 809T178 915Q178 971 211 1011T302 1076T436 1112T600 1124Q708 1124 788 1106T922 1046T1003 939T1030 776V254Q1030 212 1036 184T1057 140T1095 116T1153 109H1161V0H780L737 141H719Q685 100 655 70T591 19T515 -10T414 -20Q346 -20 288 0T186 61T117
165T92 313Q92 480 206 560T551 647L719 653V766Q719 817 715 860T698 934T660 982T592 999ZM865 1444Q865 1389 846 1348T794 1278T715 1236T619 1221Q568 1221 523 1235T445 1278T392 1347T373 1444Q373 1498 392 1540T444 1610T523 1652T619 1667Q670 1667 715
1653T793 1610T846 1540T865 1444ZM740 1444Q740 1474 731 1495T705 1529T666 1548T619 1554Q594 1554 572 1548T534 1529T508 1495T498 1444Q498 1414 507 1393T533 1359T572 1339T619 1333Q644 1333 666 1339T704 1358T730 1393T740 1444Z" />
<glyph unicode="&#xe6;" glyph-name="ae" horiz-adv-x="1792" d="M410 305Q410 217 438 173T526 129Q570 129 605 147T666 200T705 282T719 391V545L627 539Q566 536 524 520T457 474T421 403T410 305ZM1231 991Q1146 991 1095 906T1038 657H1393Q1393 817 1354
904T1231 991ZM1253 -20Q1102 -20 993 30T817 176Q748 73 646 27T414 -20Q346 -20 288 0T186 61T117 165T92 313Q92 480 206 560T551 647L719 653V766Q719 817 715 860T698 934T660 982T592 999Q553 999 527 983T484 937T462 867T455 778Q317 778 248 809T178 915Q178
971 211 1011T302 1076T436 1112T600 1124Q709 1124 790 1097T926 1008Q986 1065 1061 1094T1227 1124Q1338 1124 1427 1093T1578 999T1673 845T1706 631V526H1034Q1037 423 1056 349T1111 227T1195 156T1309 133Q1362 133 1407 145T1488 180T1552 233T1597 299Q1653
269 1653 199Q1653 155 1630 116T1557 46T1433 -2T1253 -20Z" />
<glyph unicode="&#xe7;" glyph-name="ccedilla" horiz-adv-x="1079" d="M604 -20Q491 -20 398 9T237 105T133 280T96 545Q96 711 134 822T240 1000T400 1095T598 1124Q697 1124 773 1108T900 1062T977 994T1004 909Q1004 876 993 845T952 789T871 750T739 735Q739
788 733 836T711 920T671 977T606 999Q561 999 526 978T465 904T426 765T412 547Q412 339 469 236T655 133Q708 133 754 145T839 180T905 233T952 299Q977 284 989 259T1001 205Q1001 166 978 126T907 54T783 1T604 -20ZM839 -258Q839 -312 818 -355T759 -429T668
-476T549 -492Q533 -492 510 -491T462 -486T413 -479T370 -469V-344Q408 -352 445 -356T510 -360Q568 -360 601 -340T635 -266Q635 -236 624 -217T591 -187T542 -170T481 -162L524 18H641L620 -70Q670 -74 710 -88T779 -127T823 -184T839 -258Z" />
<glyph unicode="&#xe8;" glyph-name="egrave" horiz-adv-x="1169" d="M608 991Q522 991 472 906T416 657H770Q770 735 761 797T733 902T683 968T608 991ZM627 -20Q497 -20 398 18T231 128T130 304T96 543Q96 687 130 796T229 978T388 1087T604 1124Q715 1124 804
1093T955 999T1050 845T1083 631V526H412Q415 423 434 349T488 227T572 156T686 133Q739 133 784 145T865 180T929 233T975 299Q1030 269 1030 199Q1030 155 1006 116T932 46T807 -2T627 -20ZM898 1241Q850 1269 792 1310T679 1396T580 1480T517 1548V1569H838Q854
1535 879 1495T931 1414T987 1335T1037 1268V1241H898Z" />
<glyph unicode="&#xe9;" glyph-name="eacute" horiz-adv-x="1169" d="M608 991Q522 991 472 906T416 657H770Q770 735 761 797T733 902T683 968T608 991ZM627 -20Q497 -20 398 18T231 128T130 304T96 543Q96 687 130 796T229 978T388 1087T604 1124Q715 1124 804
1093T955 999T1050 845T1083 631V526H412Q415 423 434 349T488 227T572 156T686 133Q739 133 784 145T865 180T929 233T975 299Q1030 269 1030 199Q1030 155 1006 116T932 46T807 -2T627 -20ZM473 1268Q495 1297 522 1335T578 1413T630 1494T671 1569H993V1548Q974
1521 930 1481T832 1396T719 1311T612 1241H473V1268Z" />
<glyph unicode="&#xea;" glyph-name="ecircumflex" horiz-adv-x="1169" d="M608 991Q522 991 472 906T416 657H770Q770 735 761 797T733 902T683 968T608 991ZM627 -20Q497 -20 398 18T231 128T130 304T96 543Q96 687 130 796T229 978T388 1087T604 1124Q715 1124
804 1093T955 999T1050 845T1083 631V526H412Q415 423 434 349T488 227T572 156T686 133Q739 133 784 145T865 180T929 233T975 299Q1030 269 1030 199Q1030 155 1006 116T932 46T807 -2T627 -20ZM254 1268Q278 1297 310 1335T375 1413T435 1494T480 1569H756Q772
1535 800 1495T861 1414T925 1335T981 1268V1241H840Q819 1258 790 1281T730 1329T670 1379T617 1425Q594 1404 565 1379T505 1329T446 1281T396 1241H254V1268Z" />
<glyph unicode="&#xeb;" glyph-name="edieresis" horiz-adv-x="1169" d="M608 991Q522 991 472 906T416 657H770Q770 735 761 797T733 902T683 968T608 991ZM627 -20Q497 -20 398 18T231 128T130 304T96 543Q96 687 130 796T229 978T388 1087T604 1124Q715 1124
804 1093T955 999T1050 845T1083 631V526H412Q415 423 434 349T488 227T572 156T686 133Q739 133 784 145T865 180T929 233T975 299Q1030 269 1030 199Q1030 155 1006 116T932 46T807 -2T627 -20ZM281 1409Q281 1444 291 1468T317 1508T356 1529T402 1536Q426 1536
448 1530T487 1508T514 1469T525 1409Q525 1375 515 1351T487 1311T448 1289T402 1282Q378 1282 356 1289T318 1311T291 1350T281 1409ZM701 1409Q701 1444 711 1468T738 1508T777 1529T824 1536Q847 1536 868 1530T907 1508T934 1469T945 1409Q945 1375 935 1351T907
1311T869 1289T824 1282Q799 1282 777 1289T738 1311T711 1350T701 1409Z" />
<glyph unicode="&#xec;" glyph-name="igrave" horiz-adv-x="721" d="M59 109Q82 109 107 113T154 132T190 172T205 242V864Q205 905 191 929T154 967T107 985T59 989H35V1098H516V242Q516 198 530 172T566 132T614 114T662 109H686V0H35V109H59ZM370 1241Q322
1269 264 1310T151 1396T52 1480T-11 1548V1569H310Q326 1535 351 1495T403 1414T459 1335T509 1268V1241H370Z" />
<glyph unicode="&#xed;" glyph-name="iacute" horiz-adv-x="721" d="M59 109Q82 109 107 113T154 132T190 172T205 242V864Q205 905 191 929T154 967T107 985T59 989H35V1098H516V242Q516 198 530 172T566 132T614 114T662 109H686V0H35V109H59ZM523 1268Q545
1297 572 1335T628 1413T680 1494T721 1569H1043V1548Q1024 1521 980 1481T882 1396T769 1311T662 1241H523V1268Z" />
<glyph unicode="&#xee;" glyph-name="icircumflex" horiz-adv-x="721" d="M59 109Q82 109 107 113T154 132T190 172T205 242V864Q205 905 191 929T154 967T107 985T59 989H35V1098H516V242Q516 198 530 172T566 132T614 114T662 109H686V0H35V109H59ZM-30 1268Q-6
1297 26 1335T91 1413T151 1494T196 1569H472Q488 1535 516 1495T577 1414T641 1335T697 1268V1241H556Q535 1258 506 1281T446 1329T386 1379T333 1425Q310 1404 281 1379T221 1329T162 1281T112 1241H-30V1268Z" />
<glyph unicode="&#xef;" glyph-name="idieresis" horiz-adv-x="721" d="M59 109Q82 109 107 113T154 132T190 172T205 242V864Q205 905 191 929T154 967T107 985T59 989H35V1098H516V242Q516 198 530 172T566 132T614 114T662 109H686V0H35V109H59ZM-1 1409Q-1
1444 9 1468T35 1508T74 1529T120 1536Q144 1536 166 1530T205 1508T232 1469T243 1409Q243 1375 233 1351T205 1311T166 1289T120 1282Q96 1282 74 1289T36 1311T9 1350T-1 1409ZM419 1409Q419 1444 429 1468T456 1508T495 1529T542 1536Q565 1536 586 1530T625
1508T652 1469T663 1409Q663 1375 653 1351T625 1311T587 1289T542 1282Q517 1282 495 1289T456 1311T429 1350T419 1409Z" />
<glyph unicode="&#xf0;" glyph-name="eth" horiz-adv-x="1253" d="M1157 596Q1157 284 1022 132T623 -20Q501 -20 404 13T238 113T133 283T96 522Q96 658 128 759T224 928T379 1029T590 1063Q658 1063 716 1047T813 1008Q802 1041 788 1073T754 1138T706 1203T639
1268L350 1120V1253L532 1348Q481 1380 424 1398T291 1430V1559Q329 1556 381 1545T490 1516T599 1476T692 1430L950 1561V1425L807 1352Q885 1291 949 1212T1060 1036T1131 830T1157 596ZM414 520Q414 419 425 342T462 214T529 136T629 109Q687 109 727 135T793
213T830 342T842 520Q842 625 831 702T794 831T727 907T627 932Q569 932 528 908T462 833T426 705T414 520Z" />
<glyph unicode="&#xf1;" glyph-name="ntilde" horiz-adv-x="1366" d="M858 0V674Q858 740 850 791T822 878T771 931T694 950Q643 950 609 924T555 855T525 754T516 633V242Q516 199 526 173T556 133T602 114T664 109H670V0H41V109H45Q80 109 109 113T159 133T193
176T205 250V856Q205 899 195 925T165 965T118 984T57 989H51V1098H481L508 952H518Q549 1010 583 1044T657 1096T739 1119T831 1124Q910 1124 973 1101T1079 1030T1146 908T1169 729V254Q1169 206 1177 178T1203 134T1246 114T1307 109H1313V0H858ZM842 1436Q864
1436 881 1445T911 1469T931 1503T942 1544H1075Q1072 1482 1052 1427T999 1331T920 1265T819 1241Q764 1241 720 1261T637 1305T565 1350T498 1370Q475 1370 458 1361T428 1337T408 1303T397 1262H264Q267 1324 287 1379T341 1475T421 1541T522 1565Q577 1565
621 1545T704 1501T776 1456T842 1436Z" />
<glyph unicode="&#xf2;" glyph-name="ograve" horiz-adv-x="1255" d="M1159 553Q1159 264 1024 122T625 -20Q502 -20 404 15T238 122T133 301T96 553Q96 842 231 983T631 1124Q754 1124 851 1089T1017 983T1122 805T1159 553ZM414 553Q414 444 425 361T462 222T529
138T629 109Q688 109 728 137T794 222T831 361T842 553Q842 663 831 745T794 883T727 965T627 993Q568 993 527 966T461 883T425 746T414 553ZM874 1241Q826 1269 768 1310T655 1396T556 1480T493 1548V1569H814Q830 1535 855 1495T907 1414T963 1335T1013 1268V1241H874Z"
/>
<glyph unicode="&#xf3;" glyph-name="oacute" horiz-adv-x="1255" d="M1159 553Q1159 264 1024 122T625 -20Q502 -20 404 15T238 122T133 301T96 553Q96 842 231 983T631 1124Q754 1124 851 1089T1017 983T1122 805T1159 553ZM414 553Q414 444 425 361T462 222T529
138T629 109Q688 109 728 137T794 222T831 361T842 553Q842 663 831 745T794 883T727 965T627 993Q568 993 527 966T461 883T425 746T414 553ZM504 1268Q526 1297 553 1335T609 1413T661 1494T702 1569H1024V1548Q1005 1521 961 1481T863 1396T750 1311T643 1241H504V1268Z"
/>
<glyph unicode="&#xf4;" glyph-name="ocircumflex" horiz-adv-x="1255" d="M1159 553Q1159 264 1024 122T625 -20Q502 -20 404 15T238 122T133 301T96 553Q96 842 231 983T631 1124Q754 1124 851 1089T1017 983T1122 805T1159 553ZM414 553Q414 444 425 361T462
222T529 138T629 109Q688 109 728 137T794 222T831 361T842 553Q842 663 831 745T794 883T727 965T627 993Q568 993 527 966T461 883T425 746T414 553ZM262 1268Q286 1297 318 1335T383 1413T443 1494T488 1569H764Q780 1535 808 1495T869 1414T933 1335T989 1268V1241H848Q827
1258 798 1281T738 1329T678 1379T625 1425Q602 1404 573 1379T513 1329T454 1281T404 1241H262V1268Z" />
<glyph unicode="&#xf5;" glyph-name="otilde" horiz-adv-x="1255" d="M1159 553Q1159 264 1024 122T625 -20Q502 -20 404 15T238 122T133 301T96 553Q96 842 231 983T631 1124Q754 1124 851 1089T1017 983T1122 805T1159 553ZM414 553Q414 444 425 361T462 222T529
138T629 109Q688 109 728 137T794 222T831 361T842 553Q842 663 831 745T794 883T727 965T627 993Q568 993 527 966T461 883T425 746T414 553ZM795 1436Q817 1436 834 1445T864 1469T884 1503T895 1544H1028Q1025 1482 1005 1427T952 1331T873 1265T772 1241Q717
1241 673 1261T590 1305T518 1350T451 1370Q428 1370 411 1361T381 1337T361 1303T350 1262H217Q220 1324 240 1379T294 1475T374 1541T475 1565Q530 1565 574 1545T657 1501T729 1456T795 1436Z" />
<glyph unicode="&#xf6;" glyph-name="odieresis" horiz-adv-x="1255" d="M1159 553Q1159 264 1024 122T625 -20Q502 -20 404 15T238 122T133 301T96 553Q96 842 231 983T631 1124Q754 1124 851 1089T1017 983T1122 805T1159 553ZM414 553Q414 444 425 361T462
222T529 138T629 109Q688 109 728 137T794 222T831 361T842 553Q842 663 831 745T794 883T727 965T627 993Q568 993 527 966T461 883T425 746T414 553ZM293 1409Q293 1444 303 1468T329 1508T368 1529T414 1536Q438 1536 460 1530T499 1508T526 1469T537 1409Q537
1375 527 1351T499 1311T460 1289T414 1282Q390 1282 368 1289T330 1311T303 1350T293 1409ZM713 1409Q713 1444 723 1468T750 1508T789 1529T836 1536Q859 1536 880 1530T919 1508T946 1469T957 1409Q957 1375 947 1351T919 1311T881 1289T836 1282Q811 1282 789
1289T750 1311T723 1350T713 1409Z" />
<glyph unicode="&#xf7;" glyph-name="divide" horiz-adv-x="1145" d="M459 1120Q459 1155 467 1179T491 1217T528 1238T573 1245Q597 1245 618 1239T654 1218T679 1179T688 1120Q688 1086 679 1062T655 1023T618 1002T573 995Q524 995 492 1023T459 1120ZM459
344Q459 379 467 403T491 441T528 462T573 469Q597 469 618 463T654 442T679 403T688 344Q688 310 679 286T655 247T618 226T573 219Q524 219 492 247T459 344ZM1012 659H133V805H1012V659Z" />
<glyph unicode="&#xf8;" glyph-name="oslash" horiz-adv-x="1255" d="M1159 553Q1159 264 1024 122T625 -20Q487 -20 383 23L317 -82H172L274 86Q188 157 142 273T96 553Q96 842 231 983T631 1124Q703 1124 767 1112T885 1075L950 1180H1094L989 1008Q1071 936
1115 824T1159 553ZM414 553Q414 490 417 436T428 336L780 907Q728 993 627 993Q568 993 527 966T461 883T425 746T414 553ZM842 553Q842 609 839 657T829 750L481 184Q532 109 629 109Q688 109 728 137T794 222T831 361T842 553Z" />
<glyph unicode="&#xf9;" glyph-name="ugrave" horiz-adv-x="1366" d="M907 0L862 145H852Q821 92 785 60T708 10T622 -14T528 -20Q368 -20 283 79T197 385V844Q197 889 189 917T164 961T121 983T57 989H53V1098H508V442Q508 376 515 323T541 233T589 175T664 154Q713
154 748 175T806 237T839 335T850 465V858Q850 903 838 929T806 968T759 985T702 989H696V1098H1161V238Q1161 193 1171 168T1200 129T1243 113T1298 109H1315V0H907ZM890 1241Q842 1269 784 1310T671 1396T572 1480T509 1548V1569H830Q846 1535 871 1495T923 1414T979
1335T1029 1268V1241H890Z" />
<glyph unicode="&#xfa;" glyph-name="uacute" horiz-adv-x="1366" d="M907 0L862 145H852Q821 92 785 60T708 10T622 -14T528 -20Q368 -20 283 79T197 385V844Q197 889 189 917T164 961T121 983T57 989H53V1098H508V442Q508 376 515 323T541 233T589 175T664 154Q713
154 748 175T806 237T839 335T850 465V858Q850 903 838 929T806 968T759 985T702 989H696V1098H1161V238Q1161 193 1171 168T1200 129T1243 113T1298 109H1315V0H907ZM527 1268Q549 1297 576 1335T632 1413T684 1494T725 1569H1047V1548Q1028 1521 984 1481T886
1396T773 1311T666 1241H527V1268Z" />
<glyph unicode="&#xfb;" glyph-name="ucircumflex" horiz-adv-x="1366" d="M907 0L862 145H852Q821 92 785 60T708 10T622 -14T528 -20Q368 -20 283 79T197 385V844Q197 889 189 917T164 961T121 983T57 989H53V1098H508V442Q508 376 515 323T541 233T589 175T664
154Q713 154 748 175T806 237T839 335T850 465V858Q850 903 838 929T806 968T759 985T702 989H696V1098H1161V238Q1161 193 1171 168T1200 129T1243 113T1298 109H1315V0H907ZM295 1268Q319 1297 351 1335T416 1413T476 1494T521 1569H797Q813 1535 841 1495T902
1414T966 1335T1022 1268V1241H881Q860 1258 831 1281T771 1329T711 1379T658 1425Q635 1404 606 1379T546 1329T487 1281T437 1241H295V1268Z" />
<glyph unicode="&#xfc;" glyph-name="udieresis" horiz-adv-x="1366" d="M907 0L862 145H852Q821 92 785 60T708 10T622 -14T528 -20Q368 -20 283 79T197 385V844Q197 889 189 917T164 961T121 983T57 989H53V1098H508V442Q508 376 515 323T541 233T589 175T664
154Q713 154 748 175T806 237T839 335T850 465V858Q850 903 838 929T806 968T759 985T702 989H696V1098H1161V238Q1161 193 1171 168T1200 129T1243 113T1298 109H1315V0H907ZM332 1409Q332 1444 342 1468T368 1508T407 1529T453 1536Q477 1536 499 1530T538 1508T565
1469T576 1409Q576 1375 566 1351T538 1311T499 1289T453 1282Q429 1282 407 1289T369 1311T342 1350T332 1409ZM752 1409Q752 1444 762 1468T789 1508T828 1529T875 1536Q898 1536 919 1530T958 1508T985 1469T996 1409Q996 1375 986 1351T958 1311T920 1289T875
1282Q850 1282 828 1289T789 1311T762 1350T752 1409Z" />
<glyph unicode="&#xfd;" glyph-name="yacute" d="M1186 1098V989Q1155 989 1132 982T1089 958T1054 912T1022 840Q986 738 947 632T869 420T790 208T713 0Q677 -99 645 -174T578 -304T499 -395T399 -452T267 -483T90 -492H55V-373Q162 -373 237 -347T364 -273T449
-158T508 -10L139 891Q127 920 112 937T80 963T43 974T0 977V1098H584V989Q524 989 490 974T455 913Q455 896 462 873T475 834Q493 791 512 741T550 640T586 542T616 459Q631 420 641 389T657 332T668 285T674 242Q676 263 682 288T695 337T709 379T719 406L854
807Q858 817 861 830T868 858T872 885T874 907Q874 954 835 971T725 989V1098H1186ZM463 1268Q485 1297 512 1335T568 1413T620 1494T661 1569H983V1548Q964 1521 920 1481T822 1396T709 1311T602 1241H463V1268Z" />
<glyph unicode="&#xfe;" glyph-name="thorn" horiz-adv-x="1321" d="M51 -383Q73 -383 99 -379T146 -360T182 -320T197 -250V1305Q197 1352 187 1380T158 1423T114 1443T59 1448H45V1556H508V1180Q508 1151 504 1110T495 1030Q490 985 483 938H492Q514 978 543
1011T611 1068T698 1105T805 1118Q907 1118 985 1085T1117 981T1197 802T1225 545Q1225 397 1198 290T1119 112T990 9T813 -25Q696 -25 623 19T506 139H492Q496 92 500 47Q503 9 505 -34T508 -109V-250Q508 -294 522 -320T558 -360T605 -378T653 -383H698V-492H27V-383H51ZM717
127Q820 127 864 230T909 543Q909 747 865 856T719 965Q657 965 617 938T552 857T518 725T508 545Q508 439 518 361T552 230T616 153T717 127Z" />
<glyph unicode="&#xff;" glyph-name="ydieresis" d="M1186 1098V989Q1155 989 1132 982T1089 958T1054 912T1022 840Q986 738 947 632T869 420T790 208T713 0Q677 -99 645 -174T578 -304T499 -395T399 -452T267 -483T90 -492H55V-373Q162 -373 237 -347T364 -273T449
-158T508 -10L139 891Q127 920 112 937T80 963T43 974T0 977V1098H584V989Q524 989 490 974T455 913Q455 896 462 873T475 834Q493 791 512 741T550 640T586 542T616 459Q631 420 641 389T657 332T668 285T674 242Q676 263 682 288T695 337T709 379T719 406L854
807Q858 817 861 830T868 858T872 885T874 907Q874 954 835 971T725 989V1098H1186ZM266 1409Q266 1444 276 1468T302 1508T341 1529T387 1536Q411 1536 433 1530T472 1508T499 1469T510 1409Q510 1375 500 1351T472 1311T433 1289T387 1282Q363 1282 341 1289T303
1311T276 1350T266 1409ZM686 1409Q686 1444 696 1468T723 1508T762 1529T809 1536Q832 1536 853 1530T892 1508T919 1469T930 1409Q930 1375 920 1351T892 1311T854 1289T809 1282Q784 1282 762 1289T723 1311T696 1350T686 1409Z" />
<glyph unicode="&#x2013;" glyph-name="endash" horiz-adv-x="1024" d="M1034 477H-10V623H1034V477Z" />
<glyph unicode="&#x2014;" glyph-name="emdash" horiz-adv-x="2048" d="M2058 477H-10V623H2058V477Z" />
<glyph unicode="&#x2018;" glyph-name="quoteleft" horiz-adv-x="573" d="M115 1061Q115 1126 135 1187T198 1300T311 1393T481 1462V1356Q436 1340 403 1324T347 1290T313 1249T301 1196Q301 1176 312 1164T340 1141T376 1119T412 1090T440 1045T451 977Q451
908 409 872T303 836Q216 836 166 896T115 1061Z" />
<glyph unicode="&#x2019;" glyph-name="quoteright" horiz-adv-x="573" d="M459 1237Q459 1172 439 1111T375 998T262 905T92 836V942Q137 958 170 974T226 1008T260 1049T272 1102Q272 1122 261 1134T234 1157T198 1179T162 1209T134 1253T123 1321Q123 1390
165 1426T270 1462Q357 1462 408 1402T459 1237Z" />
<glyph unicode="&#x201a;" glyph-name="quotesinglbase" horiz-adv-x="602" d="M459 86Q459 21 439 -40T375 -153T262 -246T92 -315V-209Q137 -193 170 -177T226 -143T260 -102T272 -49Q272 -30 261 -18T234 6T198 28T162 58T134 102T123 170Q123 239 165 275T270
311Q357 311 408 251T459 86Z" />
<glyph unicode="&#x201c;" glyph-name="quotedblleft" horiz-adv-x="1001" d="M543 1061Q543 1126 563 1187T626 1300T739 1393T909 1462V1356Q865 1340 831 1324T775 1290T741 1249T729 1196Q729 1176 740 1164T768 1141T804 1119T840 1090T868 1045T879 977Q879
908 837 872T731 836Q644 836 594 896T543 1061ZM115 1061Q115 1126 135 1187T198 1300T311 1393T481 1462V1356Q436 1340 403 1324T347 1290T313 1249T301 1196Q301 1176 312 1164T340 1141T376 1119T412 1090T440 1045T451 977Q451 908 409 872T303 836Q216 836
166 896T115 1061Z" />
<glyph unicode="&#x201d;" glyph-name="quotedblright" horiz-adv-x="1001" d="M459 1237Q459 1172 439 1111T375 998T262 905T92 836V942Q137 958 170 974T226 1008T260 1049T272 1102Q272 1122 261 1134T234 1157T198 1179T162 1209T134 1253T123 1321Q123 1390
165 1426T270 1462Q357 1462 408 1402T459 1237ZM887 1237Q887 1172 867 1111T803 998T690 905T520 836V942Q565 958 598 974T654 1008T688 1049T700 1102Q700 1122 689 1134T662 1157T626 1179T590 1209T562 1253T551 1321Q551 1390 593 1426T698 1462Q785 1462
836 1402T887 1237Z" />
<glyph unicode="&#x201e;" glyph-name="quotedblbase" horiz-adv-x="1030" d="M459 86Q459 21 439 -40T375 -153T262 -246T92 -315V-209Q137 -193 170 -177T226 -143T260 -102T272 -49Q272 -30 261 -18T234 6T198 28T162 58T134 102T123 170Q123 239 165 275T270
311Q357 311 408 251T459 86ZM887 86Q887 21 867 -40T803 -153T690 -246T520 -315V-209Q565 -193 598 -177T654 -143T688 -102T700 -49Q700 -30 689 -18T662 6T626 28T590 58T562 102T551 170Q551 239 593 275T698 311Q785 311 836 251T887 86Z" />
<glyph unicode="&#x2022;" glyph-name="bullet" horiz-adv-x="819" d="M115 729Q115 821 137 883T198 983T292 1037T410 1053Q470 1053 524 1037T618 984T681 884T705 729Q705 638 682 576T618 476T524 422T410 406Q346 406 292 422T199 476T137 576T115 729Z" />
<glyph unicode="&#x2039;" glyph-name="guilsinglleft" horiz-adv-x="723" d="M133 606L446 963H590L383 553L590 143H446L133 500V606Z" />
<glyph unicode="&#x203a;" glyph-name="guilsinglright" horiz-adv-x="723" d="M590 500L276 143H133L340 553L133 963H276L590 606V500Z" />
</font>
</defs>
</svg>
