<?xml version="1.0" standalone="no"?>
<!DOCTYPE svg PUBLIC "-//W3C//DTD SVG 1.1//EN" "http://www.w3.org/Graphics/SVG/1.1/DTD/svg11.dtd">
<svg xmlns="http://www.w3.org/2000/svg">
<defs >
<font id="DroidSerif" horiz-adv-x="1132" ><font-face
    font-family="Droid Serif"
    units-per-em="2048"
    panose-1="2 2 6 0 6 5 0 2 2 0"
    ascent="1907"
    descent="-492"
    alphabetic="0" />
<glyph unicode=" " glyph-name="space" horiz-adv-x="532" />
<glyph unicode="!" glyph-name="exclam" horiz-adv-x="682" d="M221 1462H459L387 412H293L221 1462ZM211 125Q211 165 221 191T248 234T289 257T340 264Q366 264 389 257T430 234T458 192T469 125Q469 86 459 59T431 16T390 -7T340 -14Q313 -14 290 -7T249 16T221
59T211 125Z" />
<glyph unicode="&quot;" glyph-name="quotedbl" horiz-adv-x="836" d="M502 1462H719L657 981H563L502 1462ZM117 1462H334L272 981H178L117 1462Z" />
<glyph unicode="#" glyph-name="numbersign" horiz-adv-x="1145" d="M397 537H682L758 938H473L397 537ZM1038 537V416H780L702 0H580L657 416H373L295 0H172L250 416H82V537H272L350 938H106V1059H373L446 1462H571L496 1059H780L856 1462H979L903 1059H1063V938H881L805
537H1038Z" />
<glyph unicode="$" glyph-name="dollar" horiz-adv-x="1145" d="M621 1401Q713 1399 777 1381T883 1332T942 1260T961 1171Q961 1105 917 1072T799 1038Q799 1083 792 1128T765 1211T710 1275T621 1307V829Q713 789 784 749T903 663T976 560T1001 430Q1001 276
902 191T621 86V-162H518V82Q467 82 415 86T314 101T219 128T135 166V481H221Q221 424 242 371T303 275T397 205T518 172V678Q422 721 356 763T248 851T189 952T170 1073Q170 1142 194 1198T264 1295T373 1362T518 1397V1556H621V1401ZM813 399Q813 440 803 472T770
533T711 585T621 633V178Q713 194 763 252T813 399ZM354 1090Q354 1047 364 1015T396 957T447 912T518 874V1303Q478 1294 447 1275T396 1228T365 1165T354 1090Z" />
<glyph unicode="%" glyph-name="percent" horiz-adv-x="1835" d="M764 1030Q764 927 743 843T680 699T575 606T428 573Q340 573 277 606T172 699T112 843T92 1030Q92 1133 111 1216T172 1359T277 1451T430 1483Q514 1483 576 1451T680 1360T743 1217T764 1030ZM276
1030Q276 942 284 873T310 755T357 682T428 657Q470 657 499 682T545 755T570 872T578 1030Q578 1117 571 1185T546 1300T500 1372T430 1397Q388 1397 359 1373T311 1301T284 1185T276 1030ZM1743 436Q1743 333 1722 249T1659 105T1554 13T1407 -20Q1319 -20 1255
12T1151 105T1091 249T1071 436Q1071 539 1090 622T1151 765T1256 857T1409 889Q1493 889 1555 857T1659 766T1722 623T1743 436ZM1255 436Q1255 348 1263 279T1289 161T1336 88T1407 63Q1449 63 1478 88T1524 161T1548 278T1556 436Q1556 523 1549 591T1524 706T1479
778T1409 803Q1367 803 1338 779T1290 707T1263 591T1255 436ZM616 0H481L1212 1462H1346L616 0Z" />
<glyph unicode="&amp;" glyph-name="ampersand" horiz-adv-x="1520" d="M1174 0L1004 180Q967 138 923 102T824 38T705 -4T561 -20Q438 -20 347 11T195 98T104 234T74 410Q74 497 97 561T163 675T266 761T401 829Q362 875 333 917T284 1002T254 1088T244 1182Q244
1250 266 1305T335 1400T455 1461T631 1483Q729 1483 798 1460T910 1397T973 1304T993 1192Q993 1126 974 1075T914 981T807 900T647 821L1020 426Q1034 472 1043 519T1057 612T1065 701T1067 782V862H1436V776H1417Q1383 776 1350 772T1289 754T1238 712T1202
637Q1184 571 1161 494T1102 340L1292 137Q1307 122 1323 112T1360 96T1411 88T1483 86H1501V0H1174ZM580 94Q640 94 691 106T786 141T865 193T930 260L477 745Q430 719 393 688T329 615T288 521T274 403Q274 328 296 271T358 174T455 114T580 94ZM813 1190Q813
1231 803 1266T771 1326T712 1367T623 1382Q532 1382 483 1329T434 1188Q434 1149 442 1115T467 1048T512 978T578 899Q638 925 682 954T756 1017T799 1094T813 1190Z" />
<glyph unicode="&apos;" glyph-name="quotesingle" horiz-adv-x="451" d="M117 1462H334L272 981H178L117 1462Z" />
<glyph unicode="(" glyph-name="parenleft" horiz-adv-x="709" d="M330 649Q330 527 339 408T381 183T475 -14T643 -168V-262Q502 -206 402 -126T239 64T146 319T117 649Q117 834 146 977T238 1231T402 1420T643 1556V1464Q538 1400 476 1311T381 1115T340 890T330 649Z" />
<glyph unicode=")" glyph-name="parenright" horiz-adv-x="709" d="M379 649Q379 771 370 890T328 1115T233 1310T66 1464V1556Q207 1500 307 1421T470 1231T562 978T592 649Q592 464 563 320T470 65T307 -126T66 -262V-168Q171 -104 233 -14T327 182T369 408T379 649Z" />
<glyph unicode="*" glyph-name="asterisk" horiz-adv-x="1024" d="M84 1268L156 1430L471 1231L418 1556H596L539 1233L856 1425L928 1266L582 1165L928 1065L856 907L539 1098L596 774H418L469 1098L156 903L84 1063L428 1165L84 1268Z" />
<glyph unicode="+" glyph-name="plus" horiz-adv-x="1145" d="M633 672V293H510V672H133V793H510V1171H633V793H1012V672H633Z" />
<glyph unicode="," glyph-name="comma" horiz-adv-x="512" d="M397 86Q397 21 379 -40T321 -153T217 -246T61 -315V-229Q162 -197 209 -151T256 -45Q256 -25 245 -12T217 12T181 33T145 57T117 91T106 143Q106 202 144 233T240 264Q272 264 300 253T350 219T384
163T397 86Z" />
<glyph unicode="-" glyph-name="hyphen" horiz-adv-x="635" d="M51 481V635H584V481H51Z" />
<glyph unicode="." glyph-name="period" horiz-adv-x="586" d="M164 125Q164 165 174 191T201 234T242 257T293 264Q319 264 342 257T383 234T411 192T422 125Q422 86 412 59T384 16T343 -7T293 -14Q266 -14 243 -7T202 16T174 59T164 125Z" />
<glyph unicode="/" glyph-name="slash" horiz-adv-x="590" d="M121 -248H0L471 1556H590L121 -248Z" />
<glyph unicode="0" glyph-name="zero" horiz-adv-x="1145" d="M1053 733Q1053 564 1024 425T934 187T784 34T573 -20Q447 -20 356 34T207 187T120 425T92 735Q92 905 120 1043T206 1279T356 1430T575 1483Q695 1483 784 1430T934 1279T1023 1043T1053 733ZM305
733Q305 581 319 462T364 260T447 134T573 90Q648 90 699 133T781 259T826 461T840 733Q840 885 827 1004T782 1205T700 1329T575 1372Q500 1372 449 1330T365 1205T319 1004T305 733Z" />
<glyph unicode="1" glyph-name="one" horiz-adv-x="1145" d="M197 0V86H334Q369 86 399 91T452 111T488 156T502 233V1309Q463 1261 428 1222T361 1155T299 1112T238 1096Q193 1096 164 1126T135 1206Q166 1214 197 1225T264 1255T341 1300T434 1364L578 1470H709V233Q709
185 722 156T758 112T811 91T877 86H977V0H197Z" />
<glyph unicode="2" glyph-name="two" horiz-adv-x="1145" d="M944 1141Q944 1069 921 1001T854 862T747 713T602 547L256 164H729Q775 164 805 177T854 211T883 259T901 317L909 354H995L985 0H104V150L446 545Q528 640 583 715T673 856T722 986T737 1120Q737
1179 725 1226T687 1308T622 1361T528 1380Q458 1380 415 1355T346 1288T312 1191T303 1075Q266 1075 234 1081T178 1102T141 1143T127 1208Q127 1267 152 1317T228 1405T354 1462T528 1483Q625 1483 702 1459T833 1390T915 1282T944 1141Z" />
<glyph unicode="3" glyph-name="three" horiz-adv-x="1145" d="M508 90Q569 90 624 107T721 163T788 265T813 420Q813 485 788 537T714 627T597 684T442 705H377V809H442Q510 809 568 831T670 895T739 994T764 1126Q764 1186 752 1233T714 1313T646 1363T545 1380Q475
1380 431 1355T362 1288T328 1191T319 1075Q282 1075 250 1081T194 1102T157 1143T143 1208Q143 1267 168 1317T245 1405T371 1462T545 1483Q642 1483 721 1461T856 1398T944 1296T975 1157Q975 1088 951 1027T882 917T778 832T647 780Q685 776 728 767T813 739T893
694T961 628T1008 538T1026 418Q1026 336 1004 271T944 158T854 75T745 20T626 -10T506 -20Q405 -20 332 -2T212 48T142 120T119 207Q119 269 154 303T248 338Q248 284 265 239T316 160T397 109T508 90Z" />
<glyph unicode="4" glyph-name="four" horiz-adv-x="1145" d="M862 401V233Q862 185 875 156T911 112T965 91T1030 86H1057V0H440V86H498Q533 86 563 91T616 111T652 156T666 233V401H35V485L668 1462H862V516H1116V401H862ZM666 895Q666 940 667 994T669 1104T673
1215T680 1319Q673 1305 660 1282T631 1229T596 1168T559 1106T524 1049T496 1004L182 516H666V895Z" />
<glyph unicode="5" glyph-name="five" horiz-adv-x="1145" d="M489 100Q552 100 605 117T698 175T760 282T782 446Q782 527 760 587T697 687T599 746T471 766Q418 766 380 762T312 752T260 737T219 721L170 735L236 1460H920L930 1151H844L836 1212Q833 1234 828
1249T810 1275T778 1291T725 1296H328L289 846Q320 857 378 868T528 879Q627 879 712 852T861 771T959 636T995 446Q995 342 962 256T865 109T709 14T500 -20Q386 -20 312 -1T193 49T131 115T113 186Q113 243 144 275T242 307Q242 263 257 225T303 160T380 116T489
100Z" />
<glyph unicode="6" glyph-name="six" horiz-adv-x="1145" d="M659 1384Q505 1384 426 1233T336 782Q361 803 391 822T458 856T536 880T629 889Q723 889 799 860T928 777T1011 645T1040 469Q1040 361 1011 271T925 117T787 16T600 -20Q498 -20 411 22T261 156T161
391T125 737Q125 834 139 927T183 1103T256 1256T359 1376T494 1455T659 1483Q745 1483 808 1465T914 1417T976 1348T997 1268Q997 1209 957 1177T840 1145Q840 1195 831 1238T799 1314T743 1365T659 1384ZM588 784Q548 784 511 774T442 747T382 709T334 666Q336
512 355 403T410 225T495 124T606 92Q716 92 773 177T831 449Q831 624 769 704T588 784Z" />
<glyph unicode="7" glyph-name="seven" horiz-adv-x="1145" d="M389 0L872 1296H334Q224 1296 215 1192L207 1090H121L131 1460H1047V1401L543 0H389Z" />
<glyph unicode="8" glyph-name="eight" horiz-adv-x="1145" d="M94 367Q94 441 117 496T183 595T282 674T406 741Q348 774 299 812T215 897T161 997T141 1116Q141 1187 166 1253T244 1370T381 1452T584 1483Q680 1483 755 1457T881 1383T960 1272T987 1130Q987
1063 967 1012T911 921T824 848T711 784Q787 748 849 707T957 618T1026 514T1051 391Q1051 294 1016 218T917 88T762 8T559 -20Q444 -20 357 10T212 92T124 215T94 367ZM569 74Q636 74 690 94T783 151T843 237T864 346Q864 398 845 442T783 528T672 609T504 692Q407
640 350 557T293 358Q293 294 310 242T362 153T449 95T569 74ZM805 1135Q805 1182 793 1227T753 1307T681 1364T571 1386Q514 1386 470 1368T395 1317T350 1239T334 1141Q334 1086 351 1042T403 962T490 895T610 831Q668 860 705 890T765 957T796 1037T805 1135Z"
/>
<glyph unicode="9" glyph-name="nine" horiz-adv-x="1145" d="M467 90Q637 90 718 242T809 702Q787 675 758 650T691 606T608 575T508 563Q419 563 345 589T217 667T134 797T104 979Q104 1090 134 1182T220 1341T358 1445T543 1483Q647 1483 734 1443T885 1319T984
1105T1020 795Q1020 688 1007 586T965 392T892 225T786 94T644 8T465 -23Q378 -23 321 -8T230 33T182 90T168 154Q168 192 187 218T229 252Q243 220 263 191T313 139T381 103T467 90ZM553 684Q603 685 644 698T718 734T773 787T811 850V854Q809 989 789 1086T734
1247T651 1340T543 1370Q434 1370 375 1275T315 999Q315 915 330 855T375 757T449 702T553 684Z" />
<glyph unicode=":" glyph-name="colon" horiz-adv-x="588" d="M166 125Q166 165 176 191T203 234T244 257T295 264Q321 264 344 257T385 234T413 192T424 125Q424 86 414 59T386 16T345 -7T295 -14Q268 -14 245 -7T204 16T176 59T166 125ZM166 969Q166 1009 176
1035T203 1078T244 1101T295 1108Q321 1108 344 1101T385 1078T413 1036T424 969Q424 930 414 903T386 860T345 836T295 829Q268 829 245 836T204 859T176 903T166 969Z" />
<glyph unicode=";" glyph-name="semicolon" horiz-adv-x="512" d="M397 86Q397 21 379 -40T321 -153T217 -246T61 -315V-229Q162 -197 209 -151T256 -45Q256 -25 245 -12T217 12T181 33T145 57T117 91T106 143Q106 202 144 233T240 264Q272 264 300 253T350 219T384
163T397 86ZM129 969Q129 1009 139 1035T166 1078T207 1101T258 1108Q284 1108 307 1101T348 1078T376 1036T387 969Q387 930 377 903T349 860T308 836T258 829Q231 829 208 836T167 859T139 903T129 969Z" />
<glyph unicode="&lt;" glyph-name="less" horiz-adv-x="1145" d="M133 696V768L1012 1241V1104L324 731L1012 362V225L133 696Z" />
<glyph unicode="=" glyph-name="equal" horiz-adv-x="1145" d="M1012 590V469H133V590H1012ZM1012 993V872H133V993H1012Z" />
<glyph unicode="&gt;" glyph-name="greater" horiz-adv-x="1145" d="M133 225V362L821 731L133 1104V1241L1012 768V696L133 225Z" />
<glyph unicode="?" glyph-name="question" horiz-adv-x="1024" d="M522 412H397V723Q486 759 546 806T643 909T695 1025T711 1147Q711 1200 698 1243T658 1317T589 1365T487 1382Q423 1382 380 1361T309 1304T270 1221T258 1120Q221 1120 190 1128T137 1153T101
1195T88 1253Q88 1302 110 1344T180 1417T300 1465T471 1483Q568 1483 650 1458T792 1386T886 1269T920 1112Q920 1028 894 959T816 833T691 729T522 643V412ZM328 125Q328 165 338 191T365 234T406 257T457 264Q483 264 506 257T547 234T575 192T586 125Q586 86
576 59T548 16T507 -7T457 -14Q430 -14 407 -7T366 16T338 59T328 125Z" />
<glyph unicode="@" glyph-name="at" horiz-adv-x="1886" d="M1778 803Q1778 655 1742 536T1648 332T1519 203T1376 158Q1285 158 1225 207T1135 344H1124Q1103 304 1077 270T1017 211T942 172T848 158Q786 158 730 179T631 243T563 352T537 508Q537 563 549 627T588
754T656 877T756 982T889 1055T1059 1083Q1125 1083 1172 1065T1251 1022L1333 1065H1382L1278 543Q1275 519 1271 495Q1268 475 1266 451T1264 406Q1264 370 1274 344T1302 300T1341 274T1389 266Q1434 266 1481 302T1566 407T1628 578T1653 809Q1653 943 1610
1045T1491 1217T1308 1322T1073 1358Q973 1358 877 1330T694 1248T535 1115T408 936T325 713T295 451Q295 280 344 160T476 -37T670 -149T905 -184Q989 -184 1064 -170T1204 -131T1325 -77T1425 -14L1473 -88Q1422 -126 1359 -162T1223 -227T1065 -273T885 -291Q720
-291 582 -246T345 -108T189 122T133 446Q133 591 164 722T255 967T399 1171T590 1327T820 1427T1085 1462Q1257 1462 1387 1411T1604 1272T1734 1063T1778 803ZM727 479Q727 371 770 319T883 266Q935 266 973 288T1037 347T1079 429T1104 522L1182 938Q1169 967
1137 983T1067 999Q1006 999 957 973T870 903T805 805T761 691T735 578T727 479Z" />
<glyph unicode="A" glyph-name="A" horiz-adv-x="1444" d="M414 489L336 274Q327 250 322 227T317 186Q317 134 350 110T453 86H500V0H0V86H39Q69 86 90 92T128 117T160 166T195 246L649 1462H809L1272 195Q1284 163 1296 142T1326 109T1365 91T1417 86H1444V0H881V86H928Q1051
86 1051 184Q1051 201 1047 219T1034 260L952 489H414ZM788 950Q756 1041 730 1120T686 1274Q679 1237 670 1203T649 1132T624 1057T592 969L453 592H915L788 950Z" />
<glyph unicode="B" glyph-name="B" horiz-adv-x="1339" d="M1153 1096Q1153 1027 1134 975T1080 884T1000 819T899 774V766Q969 754 1027 725T1126 650T1191 540T1214 395Q1214 197 1084 99T688 0H78V86H104Q139 86 169 91T223 111T259 156T272 233V1237Q272 1282
259 1309T222 1352T169 1371T104 1376H78V1462H627Q893 1462 1023 1374T1153 1096ZM479 102H678Q765 102 825 118T923 169T978 262T995 401Q995 481 980 540T929 638T832 696T682 715H479V102ZM479 817H621Q711 817 771 833T867 882T918 969T934 1096Q934 1171
917 1221T862 1303T764 1347T616 1360H479V817Z" />
<glyph unicode="C" glyph-name="C" horiz-adv-x="1257" d="M774 1483Q879 1483 956 1466T1085 1417T1162 1344T1188 1253Q1188 1220 1175 1194T1137 1149T1081 1120T1010 1110Q1010 1158 998 1205T957 1289T883 1350T770 1374Q654 1374 573 1332T441 1208T367
1007T344 733Q344 596 368 482T444 287T576 160T770 115Q845 115 902 129T1004 168T1081 223T1141 289Q1158 278 1169 259T1180 209Q1180 170 1154 130T1073 56T936 2T739 -20Q586 -20 470 34T276 187T157 425T117 733Q117 899 159 1037T283 1274T489 1428T774
1483Z" />
<glyph unicode="D" glyph-name="D" horiz-adv-x="1489" d="M1372 733Q1372 565 1330 430T1205 199T997 52T705 0H78V86H104Q139 86 169 91T223 111T259 156T272 233V1237Q272 1282 259 1309T222 1352T169 1371T104 1376H78V1462H705Q863 1462 987 1414T1196 1272T1327
1043T1372 733ZM657 104Q779 104 870 145T1023 267T1114 464T1145 733Q1145 1038 1024 1199T659 1360H479V104H657Z" />
<glyph unicode="E" glyph-name="E" horiz-adv-x="1276" d="M479 102H874Q923 102 957 115T1015 152T1051 205T1069 270L1083 358H1190L1176 0H78V86H104Q138 86 168 90T222 109T258 150T272 223V1229Q272 1277 259 1306T223 1350T170 1371T104 1376H78V1462H1110L1120
1104H1014L1004 1192Q1000 1226 989 1256T956 1310T902 1346T823 1360H479V815H973V715H479V102Z" />
<glyph unicode="F" glyph-name="F" horiz-adv-x="1208" d="M479 1360V768H973V668H479V233Q479 185 492 156T528 112T582 91T647 86H715V0H78V86H104Q138 86 168 90T222 109T258 150T272 223V1237Q272 1282 259 1309T222 1352T169 1371T104 1376H78V1462H1110L1120
1104H1014L1004 1192Q1000 1227 988 1257T954 1310T897 1346T815 1360H479Z" />
<glyph unicode="G" glyph-name="G" horiz-adv-x="1462" d="M821 -20Q643 -20 511 34T291 187T160 425T117 733Q117 899 162 1037T298 1274T523 1428T834 1483Q948 1483 1032 1466T1173 1417T1258 1344T1286 1253Q1286 1220 1271 1194T1231 1149T1171 1120T1096
1110Q1096 1158 1082 1205T1036 1289T952 1350T825 1374Q695 1374 604 1332T454 1208T370 1007T344 733Q344 580 371 461T459 261T617 138T854 96Q913 96 968 102T1067 121V451Q1067 496 1054 523T1017 565T964 585T899 590H891V676H1423V590H1415Q1386 590 1360
585T1315 565T1285 520T1274 442V74Q1171 26 1062 3T821 -20Z" />
<glyph unicode="H" glyph-name="H" horiz-adv-x="1624" d="M950 0V86H977Q1012 86 1042 91T1095 111T1131 156T1145 233V713H479V233Q479 185 492 156T528 112T582 91T647 86H674V0H78V86H104Q139 86 169 91T223 111T259 156T272 233V1237Q272 1282 259 1309T222
1352T169 1371T104 1376H78V1462H674V1376H647Q613 1376 582 1371T529 1351T493 1306T479 1229V815H1145V1229Q1145 1277 1132 1306T1096 1350T1043 1371T977 1376H950V1462H1546V1376H1520Q1485 1376 1455 1371T1401 1351T1365 1306T1352 1229V223Q1352 178 1365
151T1402 109T1455 91T1520 86H1546V0H950Z" />
<glyph unicode="I" glyph-name="I" horiz-adv-x="752" d="M78 0V86H104Q139 86 169 91T223 111T259 156T272 233V1229Q272 1277 259 1306T223 1350T170 1371T104 1376H78V1462H674V1376H647Q613 1376 582 1371T529 1351T493 1306T479 1229V233Q479 185 492 156T528
112T582 91T647 86H674V0H78Z" />
<glyph unicode="J" glyph-name="J" horiz-adv-x="731" d="M-23 -395H-4Q62 -395 113 -377T200 -315T253 -199T272 -18V1237Q272 1282 259 1309T222 1352T169 1371T104 1376H78V1462H674V1376H647Q613 1376 582 1371T529 1351T493 1306T479 1229V-16Q479 -154 443
-245T344 -391T196 -469T12 -492H-23V-395Z" />
<glyph unicode="K" glyph-name="K" horiz-adv-x="1434" d="M903 1137Q936 1175 958 1204T992 1258T1010 1300T1016 1333Q1016 1359 991 1368T915 1378V1462H1368V1378Q1333 1378 1301 1365T1236 1327T1169 1267T1094 1186L797 852L1229 250Q1288 169 1342 128T1454
86H1458V0H1436Q1333 0 1267 8T1156 37T1078 93T1006 184L653 690L479 549V233Q479 185 492 156T528 112T582 91T647 86H674V0H78V86H104Q138 86 168 90T222 109T258 150T272 223V1237Q272 1282 259 1309T222 1352T169 1371T104 1376H78V1462H674V1376H647Q613
1376 582 1371T529 1351T493 1306T479 1229V651L903 1137Z" />
<glyph unicode="L" glyph-name="L" horiz-adv-x="1276" d="M78 0V86H104Q139 86 169 91T223 111T259 156T272 233V1229Q272 1277 259 1306T223 1350T170 1371T104 1376H78V1462H674V1376H647Q613 1376 583 1372T529 1352T493 1310T479 1237V102H883Q929 102 961
118T1015 161T1047 221T1063 287L1083 440H1190L1176 0H78Z" />
<glyph unicode="M" glyph-name="M" horiz-adv-x="1921" d="M1298 0V86H1305Q1338 86 1364 90T1409 108T1439 147T1452 215V1309L983 0H872L397 1305V233Q397 185 407 156T436 112T483 91T545 86H551V0H78V86H104Q138 86 168 90T222 109T258 150T272 223V1237Q272
1282 259 1309T222 1352T169 1371T104 1376H78V1462H545L969 291L1389 1462H1843V1376H1817Q1782 1376 1752 1371T1698 1351T1662 1306T1649 1229V233Q1649 185 1662 156T1698 112T1751 91T1817 86H1843V0H1298Z" />
<glyph unicode="N" glyph-name="N" horiz-adv-x="1563" d="M1165 0L397 1180V233Q397 185 410 156T446 112T500 91T565 86H592V0H78V86H104Q139 86 169 91T223 111T259 156T272 233V1237Q272 1282 259 1309T222 1352T169 1371T104 1376H78V1462H453L1186 330V1237Q1186
1282 1173 1309T1136 1352T1083 1371T1018 1376H991V1462H1505V1376H1479Q1444 1376 1414 1371T1360 1351T1324 1306T1311 1229V0H1165Z" />
<glyph unicode="O" glyph-name="O" horiz-adv-x="1520" d="M1403 733Q1403 564 1361 425T1237 187T1035 34T760 -20Q597 -20 476 34T275 187T155 425T115 735Q115 905 155 1043T275 1280T477 1431T762 1485Q917 1485 1036 1432T1237 1280T1361 1043T1403 733ZM342
733Q342 581 364 462T437 260T566 134T760 90Q874 90 953 133T1082 259T1154 461T1176 733Q1176 885 1154 1004T1083 1206T955 1331T762 1374Q648 1374 568 1331T438 1206T365 1005T342 733Z" />
<glyph unicode="P" glyph-name="P" horiz-adv-x="1237" d="M78 0V86H104Q139 86 169 91T223 111T259 156T272 233V1237Q272 1282 259 1309T222 1352T169 1371T104 1376H78V1462H653Q782 1462 877 1433T1034 1348T1126 1213T1157 1034Q1157 943 1129 859T1035 711T865
608T608 569H479V223Q479 178 492 151T529 109T582 91T647 86H715V0H78ZM479 666H588Q681 666 747 685T855 748T916 860T936 1026Q936 1112 919 1175T864 1281T766 1343T618 1364H479V666Z" />
<glyph unicode="Q" glyph-name="Q" horiz-adv-x="1520" d="M1403 733Q1403 583 1370 457T1273 235T1114 77T897 -8Q906 -113 931 -183T995 -296T1086 -357T1200 -375H1233V-471H1145Q1064 -471 984 -450T837 -376T727 -236T672 -16Q531 -1 427 58T253 215T150
444T115 735Q115 905 155 1043T275 1280T477 1431T762 1485Q917 1485 1036 1432T1237 1280T1361 1043T1403 733ZM342 733Q342 581 364 462T437 260T566 134T760 90Q874 90 953 133T1082 259T1154 461T1176 733Q1176 885 1154 1004T1083 1206T955 1331T762 1374Q648
1374 568 1331T438 1206T365 1005T342 733Z" />
<glyph unicode="R" glyph-name="R" horiz-adv-x="1343" d="M1135 250Q1187 168 1236 127T1350 86H1356V0H1327Q1231 0 1170 7T1065 34T992 90T926 184L649 645H479V223Q479 178 492 151T529 109T582 91T647 86H674V0H78V86H104Q138 86 168 90T222 109T258 150T272
223V1237Q272 1282 259 1309T222 1352T169 1371T104 1376H78V1462H629Q895 1462 1025 1364T1155 1067Q1155 985 1129 924T1059 817T962 742T854 694L1135 250ZM479 741H623Q713 741 773 761T869 821T920 921T936 1061Q936 1143 919 1200T864 1294T766 1347T618
1364H479V741Z" />
<glyph unicode="S" glyph-name="S" horiz-adv-x="1114" d="M506 -20Q406 -20 330 1T202 59T124 150T98 268Q98 330 136 368T246 406Q249 342 265 283T315 179T399 107T522 80Q660 80 737 146T815 338Q815 394 799 437T746 516T649 586T498 657Q403 696 332 740T214
839T144 961T121 1112Q121 1200 154 1269T248 1385T390 1458T569 1483Q661 1483 732 1464T852 1413T926 1340T952 1253Q952 1187 909 1154T791 1120Q791 1168 780 1214T741 1297T670 1357T561 1380Q502 1380 456 1364T377 1317T328 1243T311 1147Q311 1086 327
1040T380 956T479 885T629 815Q719 778 789 737T909 646T984 533T1010 391Q1010 294 975 218T873 88T714 8T506 -20Z" />
<glyph unicode="T" glyph-name="T" horiz-adv-x="1255" d="M729 233Q729 185 742 156T778 112T832 91T897 86H944V0H307V86H354Q388 86 418 90T472 109T508 150T522 223V1360H326Q281 1360 251 1347T201 1310T172 1257T158 1192L147 1104H41L51 1462H1204L1214
1104H1108L1098 1192Q1094 1226 1084 1256T1055 1310T1005 1346T928 1360H729V233Z" />
<glyph unicode="U" glyph-name="U" horiz-adv-x="1468" d="M741 -20Q620 -20 524 5T362 86T260 229T225 442V1237Q225 1282 212 1309T175 1352T122 1371T57 1376H31V1462H627V1376H600Q566 1376 535 1371T482 1351T446 1306T432 1229V430Q432 341 457 279T528
177T636 120T774 102Q863 102 927 126T1034 192T1097 293T1118 422V1237Q1118 1282 1105 1309T1068 1352T1015 1371T950 1376H924V1462H1438V1376H1411Q1377 1376 1346 1371T1293 1351T1257 1306T1243 1229V418Q1243 316 1211 235T1115 97T957 10T741 -20Z" />
<glyph unicode="V" glyph-name="V" horiz-adv-x="1382" d="M614 0L172 1268Q161 1300 148 1321T118 1354T79 1371T27 1376H0V1462H563V1376H516Q454 1376 424 1353T393 1278Q393 1261 397 1243T410 1202L635 537Q666 446 688 361T727 201Q743 275 765 358T821
537L1047 1188Q1055 1213 1060 1236T1065 1276Q1065 1329 1032 1352T930 1376H883V1462H1382V1376H1343Q1313 1376 1292 1370T1253 1347T1220 1298T1188 1217L764 0H614Z" />
<glyph unicode="W" glyph-name="W" horiz-adv-x="2144" d="M1180 1448L1436 561Q1465 459 1487 366T1524 201Q1539 275 1558 356T1606 537L1786 1169Q1789 1181 1793 1196T1800 1226T1805 1254T1808 1276Q1808 1329 1775 1352T1673 1376H1626V1462H2126V1376H2087Q2057
1376 2035 1370T1994 1347T1961 1299T1931 1217L1585 0H1401L1067 1147L754 0H565L190 1268Q180 1300 168 1321T138 1354T98 1371T45 1376H18V1462H582V1376H535Q473 1376 443 1353T412 1278Q412 1261 417 1243T428 1202L616 547Q642 454 665 365T705 201Q720 281
740 375T788 569L1032 1448H1180Z" />
<glyph unicode="X" glyph-name="X" horiz-adv-x="1352" d="M954 1317Q954 1335 946 1346T923 1364T888 1373T844 1376H838V1462H1286V1376H1268Q1238 1376 1214 1369T1166 1345T1119 1299T1065 1229L768 801L1145 195Q1190 135 1230 111T1309 86H1335V0H782V86H793Q915
86 915 154Q915 165 913 176T903 202T883 239T848 295L645 621L418 285Q409 272 400 256T383 221T370 185T365 150Q365 115 397 101T498 86H504V0H16V86H29Q66 86 93 93T144 118T191 162T242 229L584 719L246 1268Q209 1327 163 1351T70 1376H43V1462H598V1376H592Q557
1376 534 1372T498 1359T480 1340T475 1317Q475 1306 476 1296T483 1273T497 1241T524 1196L709 897L903 1192Q926 1227 940 1258T954 1317Z" />
<glyph unicode="Y" glyph-name="Y" horiz-adv-x="1280" d="M326 0V86H373Q407 86 437 90T491 109T527 150T541 223V610L162 1268Q145 1297 130 1317T99 1351T62 1370T16 1376H-10V1462H553V1376H477Q449 1376 432 1371T404 1357T391 1336T387 1311Q387 1282 399
1253T424 1202L575 928Q611 865 636 804T678 694Q687 716 700 743T730 800T765 863T801 928L932 1163Q952 1198 960 1229T969 1286Q969 1331 937 1353T846 1376H786V1462H1286V1376H1262Q1240 1376 1221 1369T1181 1343T1140 1294T1092 1217L748 610V233Q748 185
761 156T797 112T850 91T915 86H963V0H326Z" />
<glyph unicode="Z" glyph-name="Z" horiz-adv-x="1212" d="M1094 1378L324 102H840Q886 102 917 115T967 152T996 205T1010 270L1020 358H1126L1116 0H74V82L842 1360H397Q352 1360 322 1347T272 1310T243 1257T229 1192L219 1104H113L123 1462H1094V1378Z" />
<glyph unicode="[" glyph-name="bracketleft" horiz-adv-x="735" d="M205 -262V1556H662V1470H573Q539 1470 509 1465T455 1445T419 1400T406 1323V-29Q406 -77 419 -106T455 -150T508 -171T573 -176H662V-262H205Z" />
<glyph unicode="\" glyph-name="backslash" horiz-adv-x="590" d="M0 1556H119L590 -248H469L0 1556Z" />
<glyph unicode="]" glyph-name="bracketright" horiz-adv-x="737" d="M76 -262V-176H164Q199 -176 229 -171T282 -151T318 -106T332 -29V1323Q332 1371 319 1400T283 1444T230 1465T164 1470H76V1556H532V-262H76Z" />
<glyph unicode="^" glyph-name="asciicircum" horiz-adv-x="1145" d="M535 1462H606L1038 545H901L569 1274L242 545H104L535 1462Z" />
<glyph unicode="_" glyph-name="underscore" horiz-adv-x="940" d="M950 -291H-10V-170H950V-291Z" />
<glyph unicode="`" glyph-name="grave" horiz-adv-x="1182" d="M791 1241H713Q672 1269 624 1310T531 1396T449 1480T393 1548V1569H612Q628 1535 649 1495T695 1414T744 1335T791 1268V1241Z" />
<glyph unicode="a" glyph-name="a" horiz-adv-x="1153" d="M301 297Q301 201 341 154T467 106Q529 106 579 126T665 183T720 273T739 391V557L608 551Q521 547 463 530T368 481T317 403T301 297ZM549 1016Q490 1016 454 1000T397 953T369 882T362 793Q277 793
233 822T188 922Q188 975 217 1012T296 1072T414 1107T557 1118Q651 1118 721 1100T838 1039T908 930T932 764V233Q932 190 939 162T961 117T1000 93T1059 86H1065V0H788L756 176H739Q707 133 677 97T611 35T530 -5T420 -20Q352 -20 294 -1T193 59T126 161T102
307Q102 470 218 549T569 635L739 641V764Q739 819 733 865T707 945T650 997T549 1016Z" />
<glyph unicode="b" glyph-name="b" horiz-adv-x="1257" d="M1145 551Q1145 403 1118 295T1037 117T906 14T727 -20Q668 -20 620 -7T534 30T466 87T414 160H401L365 0H37V86H53Q88 86 118 91T171 111T207 156T221 233V1331Q221 1376 208 1403T171 1446T118 1465T53
1470H37V1556H414V1180Q414 1145 413 1100T410 1012Q408 964 406 913H414Q437 960 466 998T533 1062T619 1103T727 1118Q828 1118 906 1085T1037 982T1117 805T1145 551ZM692 987Q612 987 559 961T473 880T428 744T414 551Q414 444 427 362T473 224T559 140T694
111Q762 111 809 139T887 224T932 362T946 553Q946 662 932 743T888 879T809 960T692 987Z" />
<glyph unicode="c" glyph-name="c" horiz-adv-x="1008" d="M580 -20Q478 -20 392 11T244 111T148 285T113 543Q113 707 147 817T243 995T388 1090T569 1118Q633 1118 696 1106T811 1067T894 1002T926 909Q926 838 880 809T743 780Q743 828 735 871T708 946T655
997T569 1016Q510 1016 463 994T381 918T329 773T311 545Q311 327 383 220T621 113Q716 113 787 153T893 256Q908 244 918 224T928 176Q928 141 906 106T841 43T732 -2T580 -20Z" />
<glyph unicode="d" glyph-name="d" horiz-adv-x="1257" d="M1036 225Q1036 180 1049 153T1086 110T1139 91T1204 86H1221V0H874L852 184H844Q821 137 792 100T724 36T638 -5T530 -20Q429 -20 351 13T220 116T140 293T113 547Q113 695 140 803T220 981T351 1084T530
1118Q589 1118 637 1105T723 1068T792 1011T844 938H856Q853 988 850 1032Q848 1070 846 1107T844 1163V1331Q844 1376 831 1403T794 1446T741 1465T676 1470H659V1556H1036V225ZM565 111Q645 111 698 137T784 218T830 354T844 547Q844 654 831 736T785 873T698
958T563 987Q496 987 448 958T370 873T325 735T311 545Q311 327 370 219T565 111Z" />
<glyph unicode="e" glyph-name="e" horiz-adv-x="1096" d="M563 1008Q449 1008 388 916T315 645H786Q786 726 774 793T736 908T668 982T563 1008ZM588 -20Q477 -20 389 17T239 127T146 303T113 541Q113 828 231 973T567 1118Q666 1118 745 1087T879 995T963 842T993
629V535H311Q313 423 333 343T392 210T487 134T616 109Q669 109 714 121T797 153T862 198T909 252Q923 246 935 227T948 182Q948 151 926 116T859 50T747 0T588 -20Z" />
<glyph unicode="f" glyph-name="f" horiz-adv-x="756" d="M688 86V0H55V86H82Q117 86 147 91T200 111T236 156T250 233V1001H63V1098H250V1200Q250 1292 275 1362T347 1480T461 1552T612 1577Q692 1577 747 1567T835 1537T884 1492T899 1434Q899 1406 887 1385T852
1349T799 1327T731 1319Q731 1350 725 1379T703 1432T661 1469T596 1483Q552 1483 523 1466T475 1416T450 1333T442 1219V1098H731V1001H442V233Q442 185 455 156T491 112T545 91T610 86H688Z" />
<glyph unicode="g" glyph-name="g" horiz-adv-x="1102" d="M1077 1055Q1077 1033 1071 1014T1051 980T1018 957T969 948Q969 960 966 972T956 994T935 1011T901 1018Q875 1018 854 1012T813 993Q848 950 870 892T893 745Q893 669 870 605T802 493T687 420T524
393Q512 393 497 393T467 394T439 396T418 399Q398 389 380 377T349 350T327 316T319 274Q319 249 328 234T355 211T395 200T446 197H678Q770 197 834 174T938 111T997 14T1016 -109Q1016 -197 984 -268T884 -388T715 -465T473 -492Q259 -492 153 -413T47 -193Q47
-133 68 -88T124 -11T206 41T303 70Q282 79 262 94T226 130T200 178T190 238Q190 299 222 343T324 430Q280 448 246 479T188 551T152 640T139 739Q139 828 163 898T235 1017T355 1092T524 1118Q561 1118 597 1113T663 1098T718 1076T758 1051Q773 1067 793 1086T838
1122T892 1150T956 1161Q987 1161 1009 1153T1047 1130T1069 1096T1077 1055ZM213 -180Q213 -225 225 -264T267 -331T348 -375T477 -391Q587 -391 658 -373T772 -321T831 -243T848 -143Q848 -96 835 -66T795 -18T729 7T639 14H438Q395 14 355 7T283 -22T232 -81T213
-180ZM332 745Q332 614 375 553T518 492Q568 492 602 507T659 553T690 632T700 748Q700 886 658 952T516 1018Q417 1018 375 951T332 745Z" />
<glyph unicode="h" glyph-name="h" horiz-adv-x="1300" d="M588 86V0H37V86H53Q88 86 118 91T171 111T207 156T221 233V1331Q221 1376 208 1403T171 1446T118 1465T53 1470H37V1556H414V1106Q414 1078 413 1048T410 991Q408 961 406 932H416Q508 1118 717 1118Q804
1118 871 1095T985 1023T1055 898T1079 717V233Q1079 185 1091 156T1124 112T1174 91T1237 86H1243V0H887V707Q887 774 875 826T837 914T767 968T662 987Q598 987 552 964T475 897T429 792T414 655V223Q414 178 427 151T464 109T517 91T582 86H588Z" />
<glyph unicode="i" glyph-name="i" horiz-adv-x="655" d="M74 86Q108 86 138 90T192 109T228 150T242 223V872Q242 917 229 944T192 987T139 1007T74 1012H68V1098H434V233Q434 185 447 156T483 112T537 91T602 86H629V0H47V86H74ZM213 1430Q213 1466 222 1490T247
1529T284 1550T330 1556Q354 1556 375 1550T411 1529T436 1490T446 1430Q446 1394 437 1370T412 1331T375 1310T330 1303Q305 1303 284 1309T247 1331T222 1370T213 1430Z" />
<glyph unicode="j" glyph-name="j" horiz-adv-x="614" d="M414 1098V-16Q414 -154 384 -245T300 -391T172 -469T8 -492H-25V-395H-10Q45 -395 88 -377T160 -315T205 -199T221 -18V872Q221 917 208 944T171 987T118 1007T53 1012H47V1098H414ZM193 1430Q193 1466
202 1490T226 1529T263 1550T309 1556Q333 1556 354 1550T391 1529T416 1490T426 1430Q426 1394 417 1370T392 1331T355 1310T309 1303Q285 1303 264 1309T227 1331T202 1370T193 1430Z" />
<glyph unicode="k" glyph-name="k" horiz-adv-x="1198" d="M694 659L967 254Q1020 172 1072 129T1194 86H1200V0H1171Q1082 0 1025 5T925 31T848 91T770 199L565 520L414 408V223Q414 178 427 151T464 109T517 91T582 86H588V0H37V86H53Q88 86 118 91T171 111T207
156T221 233V1331Q221 1376 208 1403T171 1446T118 1465T53 1470H37V1556H414V766Q414 738 413 695T410 609Q408 561 406 508L662 788Q695 825 716 853T751 902T769 939T774 971Q774 997 750 1004T674 1012V1098H1126V1012Q1055 1012 987 962T838 821L694 659Z"
/>
<glyph unicode="l" glyph-name="l" horiz-adv-x="635" d="M53 86Q88 86 118 91T171 111T207 156T221 233V1331Q221 1376 208 1403T171 1446T118 1465T53 1470H27V1556H414V233Q414 185 427 156T463 112T516 91T582 86H608V0H27V86H53Z" />
<glyph unicode="m" glyph-name="m" horiz-adv-x="1935" d="M608 86V0H57V86H84Q119 86 148 91T198 111T230 156T242 233V872Q242 917 230 944T197 987T147 1007T84 1012H78V1098H399L426 932H436Q467 989 501 1025T573 1082T654 1110T745 1118Q795 1118 840 1108T923
1076T992 1019T1042 932H1059Q1090 989 1126 1025T1202 1082T1287 1110T1380 1118Q1458 1118 1520 1095T1625 1023T1691 898T1714 717V233Q1714 185 1726 156T1759 112T1809 91T1872 86H1878V0H1522V707Q1522 774 1511 826T1474 914T1407 968T1307 987Q1243 987
1200 963T1129 896T1091 799T1079 682V233Q1079 185 1091 156T1124 112T1174 91T1237 86H1243V0H887V707Q887 774 876 826T839 914T772 968T672 987Q605 987 560 960T486 887T446 781T434 655V223Q434 178 447 151T484 109T537 91T602 86H608Z" />
<glyph unicode="n" glyph-name="n" horiz-adv-x="1321" d="M608 86V0H57V86H74Q109 86 139 91T192 111T228 156T242 233V872Q242 917 229 944T192 987T139 1007T74 1012H68V1098H399L426 932H436Q468 989 503 1025T578 1082T662 1110T756 1118Q837 1118 900 1095T1008
1023T1076 898T1100 717V233Q1100 185 1111 156T1144 112T1194 91T1257 86H1264V0H907V707Q907 774 895 826T857 914T787 968T682 987Q612 987 565 960T488 887T447 781T434 655V223Q434 178 447 151T484 109T537 91T602 86H608Z" />
<glyph unicode="o" glyph-name="o" horiz-adv-x="1182" d="M1069 551Q1069 262 947 121T588 -20Q477 -20 389 15T240 121T146 299T113 551Q113 838 234 978T594 1118Q705 1118 793 1084T942 979T1036 802T1069 551ZM311 551Q311 437 326 350T374 205T461 116T592
86Q669 86 722 116T808 204T855 350T870 551Q870 665 855 751T807 894T721 981T590 1010Q513 1010 460 981T374 895T326 751T311 551Z" />
<glyph unicode="p" glyph-name="p" horiz-adv-x="1257" d="M692 987Q612 987 559 961T473 880T428 744T414 551Q414 444 427 362T473 224T559 140T694 111Q762 111 809 139T887 224T932 362T946 553Q946 662 932 743T888 879T809 960T692 987ZM1145 551Q1145 403
1118 295T1037 117T906 14T727 -20Q668 -20 620 -7T534 30T466 87T414 160H406Q408 107 410 61Q411 42 411 22T412 -17T413 -49T414 -72V-268Q414 -313 427 -340T464 -382T517 -401T582 -406H588V-492H37V-406H53Q88 -406 118 -401T171 -381T207 -336T221 -258V872Q221
917 208 944T171 987T118 1007T53 1012H27V1098H385L406 913H414Q437 960 466 998T533 1062T619 1103T727 1118Q828 1118 906 1085T1037 982T1117 805T1145 551Z" />
<glyph unicode="q" glyph-name="q" horiz-adv-x="1257" d="M1221 -492H608V-406H676Q711 -406 741 -401T794 -381T830 -336T844 -258V-82Q844 -47 845 -2T848 86Q850 134 852 184H844Q821 137 792 100T724 36T638 -5T530 -20Q429 -20 351 13T220 116T140 293T113
547Q113 695 140 803T220 981T351 1084T530 1118Q589 1118 637 1105T723 1068T792 1011T844 938H856L893 1098H1221V1012H1204Q1170 1012 1139 1007T1086 987T1050 942T1036 864V-266Q1036 -311 1049 -338T1086 -381T1139 -401T1204 -406H1221V-492ZM565 111Q645
111 698 137T784 218T830 354T844 547Q844 654 831 736T785 873T698 958T563 987Q496 987 448 958T370 873T325 735T311 545Q311 327 370 219T565 111Z" />
<glyph unicode="r" glyph-name="r" horiz-adv-x="965" d="M659 0H68V86H74Q109 86 139 91T192 111T228 156T242 233V872Q242 917 229 944T192 987T139 1007T74 1012H68V1098H383L422 895H432Q452 941 473 981T524 1052T600 1100T713 1118Q825 1118 879 1079T934
969Q934 937 924 910T890 864T831 834T743 823Q743 908 719 945T635 983Q597 983 567 962T515 905T477 823T452 729T438 632T434 545V223Q434 178 447 151T484 109T537 91T602 86H659V0Z" />
<glyph unicode="s" glyph-name="s" horiz-adv-x="924" d="M430 -20Q353 -20 291 -7T184 34T116 102T92 197Q92 238 105 265T138 309T180 331T221 338Q221 284 232 237T269 155T337 99T442 78Q497 78 539 91T609 129T653 188T668 264Q668 302 657 329T617 381T539
430T416 487Q337 522 279 554T182 625T125 711T106 827Q106 897 133 951T212 1041T334 1097T492 1116Q565 1116 621 1101T715 1061T772 1001T791 928Q791 872 753 839T643 805Q643 908 601 965T467 1022Q415 1022 378 1010T318 976T283 924T272 858Q272 819 286
791T330 738T409 692T526 641Q607 607 665 574T760 502T816 414T834 301Q834 221 805 161T723 61T596 0T430 -20Z" />
<glyph unicode="t" glyph-name="t" horiz-adv-x="721" d="M543 88Q580 88 611 92T674 102V12Q661 6 640 0T595 -10T543 -17T492 -20Q414 -20 358 -4T266 50T213 148T195 297V981H39V1063Q76 1063 120 1078T199 1128Q234 1166 255 1218T293 1350H387V1098H655V981H387V291Q387
186 429 137T543 88Z" />
<glyph unicode="u" glyph-name="u" horiz-adv-x="1300" d="M1079 223Q1079 178 1092 151T1129 109T1182 91T1247 86H1253V0H928L901 166H891Q860 108 823 72T743 16T655 -12T559 -20Q478 -20 415 3T309 75T244 200T221 381V872Q221 917 208 944T171 987T118 1007T53
1012H47V1098H414V391Q414 324 424 272T459 184T525 130T629 111Q697 111 745 135T825 202T872 307T887 442V864Q887 912 874 941T838 986T785 1007T719 1012H713V1098H1079V223Z" />
<glyph unicode="v" glyph-name="v" horiz-adv-x="1186" d="M8 1012V1098H520V1012H494Q432 1012 402 988T371 913Q371 896 375 879T387 838L526 451Q539 415 553 372T579 286T602 207T616 143H623Q628 165 639 197T665 268T695 347T725 424L872 823Q882 848 886
871T891 911Q891 964 858 988T756 1012H741V1098H1180V1012H1155Q1125 1012 1104 1006T1066 981T1034 932T999 852L676 0H489L160 903Q148 935 135 956T105 989T66 1007T14 1012H8Z" />
<glyph unicode="w" glyph-name="w" horiz-adv-x="1765" d="M975 1092L1180 485Q1192 448 1205 406T1231 322T1253 243T1268 180H1274Q1283 231 1303 305T1354 479L1456 809Q1464 835 1469 864T1475 911Q1475 964 1442 988T1339 1012H1325V1098H1763V1012H1737Q1707
1012 1685 1006T1646 983T1613 934T1583 852L1319 0H1155L911 721L874 856L584 0H422L154 903Q142 935 129 956T99 989T60 1007T8 1012H2V1098H508V1012H481Q420 1012 389 994T358 926Q358 909 363 885T375 838L471 494Q481 457 492 413T512 326T530 244T543 180H549Q554
206 562 240T582 314T607 395T633 473L846 1092H975Z" />
<glyph unicode="x" glyph-name="x" horiz-adv-x="1184" d="M786 952Q786 989 755 1000T676 1012H670V1098H1118V1012H1100Q1070 1012 1046 1007T998 988T949 948T893 881L682 600L983 195Q1028 135 1068 111T1147 86H1174V0H645V86H655Q778 86 778 154Q778 165
775 176T763 203T739 241T700 295L563 479L420 279Q411 267 401 251T383 218T370 184T365 150Q365 115 394 101T492 86H498V0H10V86H29Q66 86 94 92T147 113T197 153T252 217L510 551L252 903Q207 956 165 984T76 1012H49V1098H569V1012H563Q528 1012 505 1008T469
995T451 975T446 952Q446 931 458 911T494 858L629 674L735 827Q758 862 772 893T786 952Z" />
<glyph unicode="y" glyph-name="y" horiz-adv-x="1157" d="M1157 1098V1012H1151Q1121 1012 1100 1006T1061 981T1028 932T995 852L684 -8Q648 -107 616 -182T549 -310T473 -399T378 -455T256 -484T96 -492H78V-395Q182 -395 257 -364T386 -279T477 -152T539 8L160
903Q146 935 133 955T104 989T66 1007T14 1012H8V1098H500V1012H494Q432 1012 402 988T371 913Q371 896 374 879T387 838L537 473Q551 438 566 397T595 315T620 238T635 176H641Q652 221 671 285T717 424L854 823Q863 848 867 871T872 911Q872 964 839 988T737
1012H731V1098H1157Z" />
<glyph unicode="z" glyph-name="z" horiz-adv-x="1047" d="M696 117Q732 117 755 131T794 168T819 221T836 285L846 332H932L922 0H86V82L680 981H360Q320 981 294 971T252 939T225 887T203 815L201 807H115L135 1098H920V1014L324 117H696Z" />
<glyph unicode="{" glyph-name="braceleft" horiz-adv-x="877" d="M639 -262Q567 -262 512 -241T419 -182T363 -90T344 33V389Q344 452 326 493T274 558T197 593T102 606V692Q153 694 197 704T274 738T325 804T344 907V1264Q344 1404 418 1480T639 1556H774V1468H713Q622
1468 584 1414T545 1253V903Q545 803 489 737T317 651V649Q435 629 490 563T545 395V41Q545 -64 583 -119T713 -174H774V-262H639Z" />
<glyph unicode="|" glyph-name="bar" horiz-adv-x="1145" d="M633 -492H510V1556H633V-492Z" />
<glyph unicode="}" glyph-name="braceright" horiz-adv-x="877" d="M102 -174H164Q255 -174 293 -119T332 41V395Q332 497 386 563T559 649V651Q445 670 389 736T332 903V1253Q332 1360 294 1414T164 1468H102V1556H238Q383 1556 457 1480T532 1264V907Q532 845
551 804T602 739T679 704T774 692V606Q723 604 679 594T603 559T551 493T532 389V33Q532 -35 513 -89T457 -182T365 -241T238 -262H102V-174Z" />
<glyph unicode="~" glyph-name="asciitilde" horiz-adv-x="1149" d="M776 551Q746 551 714 563T651 595T591 636T539 680Q516 701 494 720T451 755T407 779T362 788Q302 788 273 730T233 551H113Q119 615 131 679T172 794T247 877T371 909Q405 909 439 896T505
863T565 819T618 774Q640 754 661 736T702 703T744 681T786 672Q843 672 870 733T911 909H1034Q1027 845 1013 781T971 666T896 583T776 551Z" />
<glyph unicode="&#xa0;" glyph-name="nbspace" horiz-adv-x="532" />
<glyph unicode="&#xa1;" glyph-name="exclamdown" horiz-adv-x="682" d="M459 -367H221L293 684H387L459 -367ZM469 971Q469 931 459 904T432 861T391 838T340 831Q314 831 291 838T250 861T222 904T211 971Q211 1010 221 1036T249 1079T290 1103T340 1110Q367
1110 390 1103T431 1080T459 1037T469 971Z" />
<glyph unicode="&#xa2;" glyph-name="cent" horiz-adv-x="1145" d="M584 180Q491 190 414 225T280 327T193 495T162 739Q162 891 195 997T285 1170T419 1271T584 1313V1462H686V1313Q745 1308 804 1294T910 1254T986 1191T1016 1106Q1016 1035 971 1006T834 977Q834
1019 825 1057T798 1126T752 1178T686 1206V297Q728 297 770 303T852 318T925 339T983 362V250Q930 222 854 200T686 176V0H584V180ZM360 741Q360 558 414 449T584 309V1206Q535 1197 494 1169T423 1086T377 947T360 741Z" />
<glyph unicode="&#xa3;" glyph-name="sterling" horiz-adv-x="1145" d="M500 690Q515 639 528 586T541 471Q541 383 492 316T360 193L365 184Q407 204 443 212T514 221Q555 221 604 209T701 182T794 155T870 143Q906 143 936 153T994 181T1043 219T1085 264V131Q1067
106 1042 79T984 30T910 -6T817 -20Q766 -20 717 -6T618 26T517 57T410 72Q342 72 283 53T158 2L131 -10V98L168 121Q206 144 243 176T311 251T360 346T379 459Q379 519 364 576T328 690H100V786H289Q275 818 261 857T236 938T218 1025T211 1112Q211 1200 240 1269T323
1385T454 1458T629 1483Q728 1483 797 1466T909 1417T971 1344T991 1253Q991 1187 948 1154T829 1120Q829 1168 821 1214T790 1297T727 1357T621 1380Q502 1380 447 1312T391 1116Q391 1068 399 1022T419 934T445 854T471 786H819V690H500Z" />
<glyph unicode="&#xa4;" glyph-name="currency" horiz-adv-x="1145" d="M197 733Q197 795 214 850T266 952L131 1087L217 1174L350 1038Q397 1072 452 1091T571 1110Q631 1110 686 1091T788 1038L926 1176L1012 1087L877 952Q911 906 929 851T948 733Q948 671
930 616T877 514L1012 379L928 293L791 428Q744 396 689 377T571 358Q509 358 454 376T352 428L217 293L131 379L264 514Q232 560 215 615T197 733ZM311 733Q311 679 331 632T387 549T470 492T571 471Q627 471 675 492T758 548T813 631T834 733Q834 789 814 837T758
920T675 976T571 997Q517 997 470 977T388 921T332 837T311 733Z" />
<glyph unicode="&#xa5;" glyph-name="yen" horiz-adv-x="1145" d="M264 0V86H311Q345 86 375 90T427 109T463 150T479 223V362H193V459H479V602H193V698H440L162 1268Q147 1298 134 1318T105 1352T67 1370T16 1376H10V1462H508V1376H494Q432 1376 405 1357T377
1296Q377 1272 385 1242T410 1176L508 958Q523 926 537 889T563 816T586 749T602 698Q606 709 615 730T635 777T659 829T682 877L799 1126Q823 1180 835 1225T848 1294Q848 1336 820 1356T723 1376H717V1462H1135V1376H1116Q1090 1376 1071 1369T1036 1344T1002
1295T961 1217L711 698H965V602H678V459H965V362H678V233Q678 185 691 156T727 112T780 91T846 86H893V0H264Z" />
<glyph unicode="&#xa6;" glyph-name="brokenbar" horiz-adv-x="1145" d="M633 737H510V1556H633V737ZM633 -492H510V328H633V-492Z" />
<glyph unicode="&#xa7;" glyph-name="section" horiz-adv-x="1114" d="M598 795Q524 830 460 864T342 940Q320 920 306 892T291 823Q291 782 305 750T353 686T444 621T590 545Q652 514 712 483T821 408Q838 432 849 461T860 524Q860 559 850 590T812 653T732 719T598
795ZM571 -133Q697 -133 759 -78T821 72Q821 117 810 150T762 217T653 291T461 391Q380 431 323 472T229 560T177 658T160 772Q160 849 194 906T281 1001Q243 1046 224 1101T205 1231Q205 1309 233 1369T312 1471T431 1534T582 1556Q666 1556 728 1539T832 1491T894
1418T915 1327Q915 1261 876 1232T770 1202Q770 1250 760 1295T727 1375T666 1432T573 1454Q471 1454 415 1403T358 1255Q358 1201 378 1165T439 1099T539 1041T676 975Q763 933 826 891T930 804T990 707T1010 596Q1010 559 1000 523T972 453T933 390T887 336Q916
296 933 246T950 133Q950 52 928 -15T858 -130T736 -206T557 -233Q478 -233 414 -218T303 -172T232 -98T207 4Q207 46 220 73T253 117T295 140T336 147Q336 93 349 43T391 -47T464 -109T571 -133Z" />
<glyph unicode="&#xa8;" glyph-name="dieresis" horiz-adv-x="1182" d="M291 1409Q291 1441 299 1463T321 1498T354 1518T395 1524Q417 1524 436 1518T469 1499T492 1463T500 1409Q500 1378 492 1356T470 1320T436 1300T395 1294Q350 1294 321 1320T291 1409ZM680
1409Q680 1441 688 1463T710 1498T743 1518T784 1524Q806 1524 825 1518T858 1499T881 1463T889 1409Q889 1378 881 1356T859 1320T825 1300T784 1294Q739 1294 710 1320T680 1409Z" />
<glyph unicode="&#xa9;" glyph-name="copyright" horiz-adv-x="1731" d="M901 365Q948 365 988 377T1060 409T1115 454T1153 504Q1165 495 1173 479T1182 440Q1182 412 1163 383T1105 330T1009 291T874 276Q772 276 696 309T568 402T491 546T465 733Q465 833 493
916T576 1059T713 1152T903 1186Q974 1186 1026 1175T1114 1144T1166 1098T1184 1040Q1184 1018 1173 1000T1143 970T1099 951T1044 944Q1044 973 1037 1000T1012 1050T968 1086T899 1100Q827 1100 777 1076T694 1005T648 890T633 733Q633 556 702 461T901 365ZM113
731Q113 835 140 931T215 1111T332 1264T484 1382T664 1458T864 1485Q968 1485 1064 1458T1244 1382T1397 1264T1515 1112T1591 932T1618 731Q1618 627 1591 531T1515 352T1397 200T1245 82T1065 7T864 -20Q760 -20 664 6T485 82T333 199T216 351T140 531T113 731ZM225
731Q225 643 248 562T312 409T412 280T542 180T694 115T864 92Q953 92 1035 115T1188 179T1317 279T1417 409T1482 561T1505 731Q1505 819 1482 901T1418 1054T1318 1184T1188 1284T1035 1349T864 1372Q776 1372 695 1349T542 1285T413 1185T313 1055T248 902T225
731Z" />
<glyph unicode="&#xaa;" glyph-name="ordfeminine" horiz-adv-x="782" d="M250 985Q250 921 277 897T344 872Q378 872 405 884T450 918T479 970T489 1036V1133L426 1130Q376 1129 343 1119T289 1090T259 1045T250 985ZM387 1397Q356 1397 337 1386T308 1356T293
1312T289 1257Q211 1257 169 1277T127 1346Q127 1381 148 1405T205 1444T289 1466T391 1473Q459 1473 509 1461T592 1423T642 1354T659 1251V940Q659 894 678 877T748 860V791H549L512 885H502Q484 865 463 846T415 811T356 787T285 778Q186 778 129 831T72 987Q72
1089 153 1137T401 1194L489 1198V1257Q489 1288 486 1313T472 1357T441 1386T387 1397Z" />
<glyph unicode="&#xab;" glyph-name="guillemotleft" horiz-adv-x="1053" d="M133 586L446 942H549L342 553L549 164H446L133 520V586ZM504 586L817 942H920L713 553L920 164H817L504 520V586Z" />
<glyph unicode="&#xac;" glyph-name="logicalnot" horiz-adv-x="1145" d="M1012 793V252H889V672H133V793H1012Z" />
<glyph unicode="&#xad;" glyph-name="uni00AD" horiz-adv-x="635" d="M51 481V635H584V481H51Z" />
<glyph unicode="&#xae;" glyph-name="registered" horiz-adv-x="1731" d="M477 358H504Q524 358 542 360T573 370T595 392T604 430V1030Q603 1054 595 1068T574 1090T542 1100T504 1102H477V1174H846Q1198 1174 1198 930Q1198 881 1182 844T1140 780T1081 735T1012
705L1194 412Q1204 395 1213 385T1236 368T1266 360T1309 358V289H1092L866 670H758V430Q760 406 768 392T789 371T820 361T858 358H887V289H477V358ZM758 748H844Q899 748 936 759T995 792T1026 848T1036 928Q1036 973 1025 1005T991 1056T930 1085T838 1094H758V748ZM113
731Q113 835 140 931T215 1111T332 1264T484 1382T664 1458T864 1485Q968 1485 1064 1458T1244 1382T1397 1264T1515 1112T1591 932T1618 731Q1618 627 1591 531T1515 352T1397 200T1245 82T1065 7T864 -20Q760 -20 664 6T485 82T333 199T216 351T140 531T113 731ZM225
731Q225 643 248 562T312 409T412 280T542 180T694 115T864 92Q953 92 1035 115T1188 179T1317 279T1417 409T1482 561T1505 731Q1505 819 1482 901T1418 1054T1318 1184T1188 1284T1035 1349T864 1372Q776 1372 695 1349T542 1285T413 1185T313 1055T248 902T225
731Z" />
<glyph unicode="&#xaf;" glyph-name="overscore" horiz-adv-x="940" d="M950 1556H-10V1677H950V1556Z" />
<glyph unicode="&#xb0;" glyph-name="degree" horiz-adv-x="819" d="M98 1151Q98 1216 122 1272T189 1371T287 1437T408 1462Q473 1462 529 1438T628 1371T694 1273T719 1151Q719 1087 695 1031T628 932T530 866T408 842Q344 842 288 866T189 932T123 1030T98
1151ZM221 1151Q221 1113 235 1079T275 1019T335 978T408 963Q448 963 482 978T541 1018T581 1078T596 1151Q596 1191 582 1225T542 1285T482 1326T408 1341Q369 1341 335 1326T276 1286T236 1226T221 1151Z" />
<glyph unicode="&#xb1;" glyph-name="plusminus" horiz-adv-x="1145" d="M633 672V293H510V672H133V793H510V1171H633V793H1012V672H633ZM1012 0H133V121H1012V0Z" />
<glyph unicode="&#xb2;" glyph-name="twosuperior" horiz-adv-x="819" d="M690 1262Q690 1214 679 1172T642 1088T574 1001T467 901L250 715H547Q594 715 612 740T637 799L645 842H715L709 586H86V678L346 911Q391 952 422 994T471 1078T498 1163T506 1245Q506
1279 500 1307T479 1357T441 1389T385 1401Q348 1401 322 1387T280 1348T257 1291T250 1223Q181 1223 142 1240T102 1311Q102 1348 120 1379T173 1434T262 1470T385 1483Q528 1483 609 1427T690 1262Z" />
<glyph unicode="&#xb3;" glyph-name="threesuperior" horiz-adv-x="819" d="M356 573Q222 573 152 619T82 741Q82 786 107 814T176 842Q176 810 186 779T218 722T272 682T350 666Q435 666 483 707T532 844Q532 916 480 958T315 1001H248V1085H315Q354 1085 387
1097T445 1133T484 1188T498 1262Q498 1330 471 1365T381 1401Q342 1401 316 1387T275 1348T253 1291T246 1223Q211 1223 183 1226T135 1240T105 1267T94 1311Q94 1348 112 1379T167 1434T257 1470T381 1483Q449 1483 505 1469T601 1429T662 1366T684 1280Q684
1235 667 1200T622 1137T555 1091T475 1059V1049Q516 1042 559 1030T637 994T696 935T719 842Q719 767 686 716T599 633T482 587T356 573Z" />
<glyph unicode="&#xb4;" glyph-name="acute" horiz-adv-x="1182" d="M391 1268Q414 1297 438 1335T486 1413T531 1494T569 1569H788V1548Q769 1521 732 1481T650 1396T558 1311T469 1241H391V1268Z" />
<glyph unicode="&#xb5;" glyph-name="mu" horiz-adv-x="1260" d="M569 -20Q483 -20 422 11T319 100Q321 15 326 -57T347 -183T396 -270T485 -313Q485 -352 477 -384T451 -441T406 -478T342 -492Q310 -492 280 -480T227 -440T190 -364T176 -248Q176 -187 179 -117T187
39T195 229T201 461V1098H393V410Q393 343 403 288T436 194T499 133T598 111Q655 111 701 135T779 202T828 307T846 442V1098H1038V264Q1038 219 1050 186T1080 130T1122 97T1167 86H1174V0H1063Q979 0 931 41T864 164H856Q832 123 805 89T743 31T666 -6T569 -20Z"
/>
<glyph unicode="&#xb6;" glyph-name="paragraph" horiz-adv-x="1264" d="M860 1452H666V-227H346V-141H373Q408 -141 438 -136T491 -116T527 -71T541 6V791H395Q305 791 245 823T149 911T98 1039T82 1192Q82 1274 99 1341T154 1456T252 1530T399 1556H1180V1470H1153Q1119
1470 1088 1465T1035 1445T999 1400T985 1323V6Q985 -42 998 -71T1034 -115T1088 -136T1153 -141H1180V-227H860V1452Z" />
<glyph unicode="&#xb7;" glyph-name="middot" horiz-adv-x="586" d="M166 729Q166 769 176 796T203 839T244 861T295 868Q321 868 344 862T385 839T413 796T424 729Q424 690 414 664T386 621T345 597T295 590Q268 590 245 597T204 620T176 663T166 729Z" />
<glyph unicode="&#xb8;" glyph-name="cedilla" horiz-adv-x="682" d="M551 -258Q551 -367 482 -429T281 -492Q265 -492 245 -491T204 -486T162 -479T123 -469V-365Q160 -373 197 -377T262 -381Q321 -381 354 -350T387 -266Q387 -206 344 -176T233 -141L276 18H373L352
-70Q452 -78 501 -127T551 -258Z" />
<glyph unicode="&#xb9;" glyph-name="onesuperior" horiz-adv-x="819" d="M145 588V657H240Q258 657 273 659T299 670T317 693T324 735V1325H133V1395H236Q259 1395 285 1398T335 1410T378 1434T406 1473H508V735Q508 709 515 694T533 670T560 660T594 657H688V588H145Z" />
<glyph unicode="&#xba;" glyph-name="ordmasculine" horiz-adv-x="813" d="M250 1126Q250 993 285 927T408 860Q494 860 529 926T565 1126Q565 1257 529 1321T406 1386Q320 1386 285 1322T250 1126ZM741 1126Q741 950 656 864T406 778Q248 778 160 864T72 1126Q72
1302 157 1387T410 1473Q487 1473 548 1452T652 1387T718 1279T741 1126Z" />
<glyph unicode="&#xbb;" glyph-name="guillemotright" horiz-adv-x="1053" d="M920 520L606 164H504L711 553L504 942H606L920 586V520ZM549 520L236 164H133L340 553L133 942H236L549 586V520Z" />
<glyph unicode="&#xbc;" glyph-name="onequarter" horiz-adv-x="1720" d="M316 588V657H411Q429 657 444 659T470 670T488 693T495 735V1325H304V1395H407Q430 1395 456 1398T506 1410T549 1434T577 1473H679V735Q679 709 686 694T704 670T731 660T765 657H859V588H316ZM566
0H430L1161 1462H1295L566 0ZM1477 261V148Q1477 122 1484 107T1503 83T1530 73T1563 70H1604V1H1153V70H1210Q1227 70 1242 72T1268 83T1287 106T1294 148V261H930V322L1313 886H1477V349H1673V261H1477ZM1294 580Q1294 612 1297 653T1305 732Q1297 715 1288 698T1274
673L1051 349H1294V580Z" />
<glyph unicode="&#xbd;" glyph-name="onehalf" horiz-adv-x="1720" d="M316 588V657H411Q429 657 444 659T470 670T488 693T495 735V1325H304V1395H407Q430 1395 456 1398T506 1410T549 1434T577 1473H679V735Q679 709 686 694T704 670T731 660T765 657H859V588H316ZM525
0H389L1120 1462H1254L525 0ZM1620 677Q1620 629 1609 587T1572 503T1504 416T1397 316L1180 130H1477Q1524 130 1542 155T1567 214L1575 257H1645L1639 1H1016V93L1276 326Q1321 367 1352 409T1401 493T1428 578T1436 660Q1436 694 1430 722T1409 772T1371 804T1315
816Q1278 816 1252 802T1210 763T1187 706T1180 638Q1111 638 1072 655T1032 726Q1032 763 1050 794T1103 849T1192 885T1315 898Q1458 898 1539 842T1620 677Z" />
<glyph unicode="&#xbe;" glyph-name="threequarters" horiz-adv-x="1720" d="M356 573Q222 573 152 619T82 741Q82 786 107 814T176 842Q176 810 186 779T218 722T272 682T350 666Q435 666 483 707T532 844Q532 916 480 958T315 1001H248V1085H315Q354 1085 387
1097T445 1133T484 1188T498 1262Q498 1330 471 1365T381 1401Q342 1401 316 1387T275 1348T253 1291T246 1223Q211 1223 183 1226T135 1240T105 1267T94 1311Q94 1348 112 1379T167 1434T257 1470T381 1483Q449 1483 505 1469T601 1429T662 1366T684 1280Q684
1235 667 1200T622 1137T555 1091T475 1059V1049Q516 1042 559 1030T637 994T696 935T719 842Q719 767 686 716T599 633T482 587T356 573ZM607 0H471L1202 1462H1336L607 0ZM1477 261V148Q1477 122 1484 107T1503 83T1530 73T1563 70H1604V1H1153V70H1210Q1227
70 1242 72T1268 83T1287 106T1294 148V261H930V322L1313 886H1477V349H1673V261H1477ZM1294 580Q1294 612 1297 653T1305 732Q1297 715 1288 698T1274 673L1051 349H1294V580Z" />
<glyph unicode="&#xbf;" glyph-name="questiondown" horiz-adv-x="1024" d="M502 682H627V371Q538 335 478 287T381 184T329 69T313 -53Q313 -106 326 -149T366 -224T435 -272T537 -289Q601 -289 644 -268T715 -211T754 -128T766 -27Q803 -27 834 -35T887 -60T923
-102T936 -160Q936 -209 914 -251T844 -323T724 -371T553 -389Q456 -389 374 -364T232 -292T138 -175T104 -18Q104 66 130 135T208 262T333 365T502 451V682ZM696 969Q696 929 686 902T659 859T618 836T567 829Q541 829 518 836T477 859T449 902T438 969Q438 1008
448 1034T476 1077T517 1101T567 1108Q594 1108 617 1101T658 1078T686 1035T696 969Z" />
<glyph unicode="&#xc0;" glyph-name="Agrave" horiz-adv-x="1444" d="M414 489L336 274Q327 250 322 227T317 186Q317 134 350 110T453 86H500V0H0V86H39Q69 86 90 92T128 117T160 166T195 246L649 1462H809L1272 195Q1284 163 1296 142T1326 109T1365 91T1417
86H1444V0H881V86H928Q1051 86 1051 184Q1051 201 1047 219T1034 260L952 489H414ZM788 950Q756 1041 730 1120T686 1274Q679 1237 670 1203T649 1132T624 1057T592 969L453 592H915L788 950ZM805 1579H727Q686 1607 638 1648T545 1734T463 1818T407 1886V1907H626Q642
1873 663 1833T709 1752T758 1673T805 1606V1579Z" />
<glyph unicode="&#xc1;" glyph-name="Aacute" horiz-adv-x="1444" d="M414 489L336 274Q327 250 322 227T317 186Q317 134 350 110T453 86H500V0H0V86H39Q69 86 90 92T128 117T160 166T195 246L649 1462H809L1272 195Q1284 163 1296 142T1326 109T1365 91T1417
86H1444V0H881V86H928Q1051 86 1051 184Q1051 201 1047 219T1034 260L952 489H414ZM788 950Q756 1041 730 1120T686 1274Q679 1237 670 1203T649 1132T624 1057T592 969L453 592H915L788 950ZM637 1606Q660 1635 684 1673T732 1751T777 1832T815 1907H1034V1886Q1015
1859 978 1819T896 1734T804 1649T715 1579H637V1606Z" />
<glyph unicode="&#xc2;" glyph-name="Acircumflex" horiz-adv-x="1444" d="M414 489L336 274Q327 250 322 227T317 186Q317 134 350 110T453 86H500V0H0V86H39Q69 86 90 92T128 117T160 166T195 246L649 1462H809L1272 195Q1284 163 1296 142T1326 109T1365 91T1417
86H1444V0H881V86H928Q1051 86 1051 184Q1051 201 1047 219T1034 260L952 489H414ZM788 950Q756 1041 730 1120T686 1274Q679 1237 670 1203T649 1132T624 1057T592 969L453 592H915L788 950ZM422 1606Q446 1635 475 1673T532 1751T586 1832T627 1907H821Q837 1873
862 1833T915 1752T973 1673T1026 1606V1579H946Q887 1613 828 1663T723 1763Q676 1714 618 1664T502 1579H422V1606Z" />
<glyph unicode="&#xc3;" glyph-name="Atilde" horiz-adv-x="1444" d="M414 489L336 274Q327 250 322 227T317 186Q317 134 350 110T453 86H500V0H0V86H39Q69 86 90 92T128 117T160 166T195 246L649 1462H809L1272 195Q1284 163 1296 142T1326 109T1365 91T1417
86H1444V0H881V86H928Q1051 86 1051 184Q1051 201 1047 219T1034 260L952 489H414ZM788 950Q756 1041 730 1120T686 1274Q679 1237 670 1203T649 1132T624 1057T592 969L453 592H915L788 950ZM895 1712Q925 1712 943 1721T972 1745T987 1780T995 1821H1087Q1084
1774 1071 1731T1031 1653T966 1599T872 1579Q817 1579 773 1599T690 1643T618 1688T551 1708Q520 1708 502 1699T474 1675T458 1641T450 1600H358Q361 1647 374 1690T414 1767T480 1821T575 1841Q630 1841 674 1821T757 1777T829 1732T895 1712Z" />
<glyph unicode="&#xc4;" glyph-name="Adieresis" horiz-adv-x="1444" d="M414 489L336 274Q327 250 322 227T317 186Q317 134 350 110T453 86H500V0H0V86H39Q69 86 90 92T128 117T160 166T195 246L649 1462H809L1272 195Q1284 163 1296 142T1326 109T1365 91T1417
86H1444V0H881V86H928Q1051 86 1051 184Q1051 201 1047 219T1034 260L952 489H414ZM788 950Q756 1041 730 1120T686 1274Q679 1237 670 1203T649 1132T624 1057T592 969L453 592H915L788 950ZM424 1747Q424 1779 432 1801T454 1836T487 1856T528 1862Q550 1862
569 1856T602 1837T625 1801T633 1747Q633 1716 625 1694T603 1658T569 1638T528 1632Q483 1632 454 1658T424 1747ZM813 1747Q813 1779 821 1801T843 1836T876 1856T917 1862Q939 1862 958 1856T991 1837T1014 1801T1022 1747Q1022 1716 1014 1694T992 1658T958
1638T917 1632Q872 1632 843 1658T813 1747Z" />
<glyph unicode="&#xc5;" glyph-name="Aring" horiz-adv-x="1444" d="M414 489L336 274Q327 250 322 227T317 186Q317 134 350 110T453 86H500V0H0V86H39Q69 86 90 92T128 117T160 166T195 246L649 1462H809L1272 195Q1284 163 1296 142T1326 109T1365 91T1417
86H1444V0H881V86H928Q1051 86 1051 184Q1051 201 1047 219T1034 260L952 489H414ZM788 950Q756 1041 730 1120T686 1274Q679 1237 670 1203T649 1132T624 1057T592 969L453 592H915L788 950ZM971 1585Q971 1530 952 1489T900 1419T821 1377T725 1362Q674 1362
629 1376T551 1419T498 1488T479 1585Q479 1639 498 1681T550 1751T629 1793T725 1808Q776 1808 821 1794T899 1751T952 1681T971 1585ZM860 1585Q860 1618 850 1641T821 1679T778 1701T725 1708Q697 1708 673 1701T630 1680T601 1642T590 1585Q590 1552 600 1529T629
1491T672 1469T725 1462Q753 1462 777 1469T820 1490T849 1528T860 1585Z" />
<glyph unicode="&#xc6;" glyph-name="AE" horiz-adv-x="1948" d="M1151 102H1546Q1594 102 1628 115T1686 152T1722 205T1741 270L1755 358H1862L1847 0H750V86H776Q810 86 840 90T892 109T929 150T944 223V489H473L360 274Q343 242 336 213T328 166Q328 124 359
105T451 86H498V0H0V86H33Q87 86 129 124T215 246L807 1366L647 1376V1462H1782L1792 1104H1686L1675 1192Q1671 1226 1660 1256T1628 1308T1574 1345T1495 1360H1151V815H1645V715H1151V102ZM890 1304T849 1221T757 1038T646 823T526 592H944V1360H915Q890 1304
849 1221Z" />
<glyph unicode="&#xc7;" glyph-name="Ccedilla" horiz-adv-x="1257" d="M774 1483Q879 1483 956 1466T1085 1417T1162 1344T1188 1253Q1188 1220 1175 1194T1137 1149T1081 1120T1010 1110Q1010 1158 998 1205T957 1289T883 1350T770 1374Q654 1374 573 1332T441
1208T367 1007T344 733Q344 596 368 482T444 287T576 160T770 115Q845 115 902 129T1004 168T1081 223T1141 289Q1158 278 1169 259T1180 209Q1180 170 1154 130T1073 56T936 2T739 -20Q586 -20 470 34T276 187T157 425T117 733Q117 899 159 1037T283 1274T489
1428T774 1483ZM942 -258Q942 -367 873 -429T672 -492Q656 -492 636 -491T595 -486T553 -479T514 -469V-365Q551 -373 588 -377T653 -381Q712 -381 745 -350T778 -266Q778 -206 735 -176T624 -141L667 18H764L743 -70Q843 -78 892 -127T942 -258Z" />
<glyph unicode="&#xc8;" glyph-name="Egrave" horiz-adv-x="1276" d="M479 102H874Q923 102 957 115T1015 152T1051 205T1069 270L1083 358H1190L1176 0H78V86H104Q138 86 168 90T222 109T258 150T272 223V1229Q272 1277 259 1306T223 1350T170 1371T104 1376H78V1462H1110L1120
1104H1014L1004 1192Q1000 1226 989 1256T956 1310T902 1346T823 1360H479V815H973V715H479V102ZM743 1579H665Q624 1607 576 1648T483 1734T401 1818T345 1886V1907H564Q580 1873 601 1833T647 1752T696 1673T743 1606V1579Z" />
<glyph unicode="&#xc9;" glyph-name="Eacute" horiz-adv-x="1276" d="M479 102H874Q923 102 957 115T1015 152T1051 205T1069 270L1083 358H1190L1176 0H78V86H104Q138 86 168 90T222 109T258 150T272 223V1229Q272 1277 259 1306T223 1350T170 1371T104 1376H78V1462H1110L1120
1104H1014L1004 1192Q1000 1226 989 1256T956 1310T902 1346T823 1360H479V815H973V715H479V102ZM545 1606Q568 1635 592 1673T640 1751T685 1832T723 1907H942V1886Q923 1859 886 1819T804 1734T712 1649T623 1579H545V1606Z" />
<glyph unicode="&#xca;" glyph-name="Ecircumflex" horiz-adv-x="1276" d="M479 102H874Q923 102 957 115T1015 152T1051 205T1069 270L1083 358H1190L1176 0H78V86H104Q138 86 168 90T222 109T258 150T272 223V1229Q272 1277 259 1306T223 1350T170 1371T104
1376H78V1462H1110L1120 1104H1014L1004 1192Q1000 1226 989 1256T956 1310T902 1346T823 1360H479V815H973V715H479V102ZM350 1606Q374 1635 403 1673T460 1751T514 1832T555 1907H749Q765 1873 790 1833T843 1752T901 1673T954 1606V1579H874Q815 1613 756 1663T651
1763Q604 1714 546 1664T430 1579H350V1606Z" />
<glyph unicode="&#xcb;" glyph-name="Edieresis" horiz-adv-x="1276" d="M479 102H874Q923 102 957 115T1015 152T1051 205T1069 270L1083 358H1190L1176 0H78V86H104Q138 86 168 90T222 109T258 150T272 223V1229Q272 1277 259 1306T223 1350T170 1371T104 1376H78V1462H1110L1120
1104H1014L1004 1192Q1000 1226 989 1256T956 1310T902 1346T823 1360H479V815H973V715H479V102ZM342 1747Q342 1779 350 1801T372 1836T405 1856T446 1862Q468 1862 487 1856T520 1837T543 1801T551 1747Q551 1716 543 1694T521 1658T487 1638T446 1632Q401 1632
372 1658T342 1747ZM731 1747Q731 1779 739 1801T761 1836T794 1856T835 1862Q857 1862 876 1856T909 1837T932 1801T940 1747Q940 1716 932 1694T910 1658T876 1638T835 1632Q790 1632 761 1658T731 1747Z" />
<glyph unicode="&#xcc;" glyph-name="Igrave" horiz-adv-x="752" d="M78 0V86H104Q139 86 169 91T223 111T259 156T272 233V1229Q272 1277 259 1306T223 1350T170 1371T104 1376H78V1462H674V1376H647Q613 1376 582 1371T529 1351T493 1306T479 1229V233Q479 185
492 156T528 112T582 91T647 86H674V0H78ZM473 1579H395Q354 1607 306 1648T213 1734T131 1818T75 1886V1907H294Q310 1873 331 1833T377 1752T426 1673T473 1606V1579Z" />
<glyph unicode="&#xcd;" glyph-name="Iacute" horiz-adv-x="752" d="M78 0V86H104Q139 86 169 91T223 111T259 156T272 233V1229Q272 1277 259 1306T223 1350T170 1371T104 1376H78V1462H674V1376H647Q613 1376 582 1371T529 1351T493 1306T479 1229V233Q479 185
492 156T528 112T582 91T647 86H674V0H78ZM271 1606Q294 1635 318 1673T366 1751T411 1832T449 1907H668V1886Q649 1859 612 1819T530 1734T438 1649T349 1579H271V1606Z" />
<glyph unicode="&#xce;" glyph-name="Icircumflex" horiz-adv-x="752" d="M78 0V86H104Q139 86 169 91T223 111T259 156T272 233V1229Q272 1277 259 1306T223 1350T170 1371T104 1376H78V1462H674V1376H647Q613 1376 582 1371T529 1351T493 1306T479 1229V233Q479
185 492 156T528 112T582 91T647 86H674V0H78ZM73 1606Q97 1635 126 1673T183 1751T237 1832T278 1907H472Q488 1873 513 1833T566 1752T624 1673T677 1606V1579H597Q538 1613 479 1663T374 1763Q327 1714 269 1664T153 1579H73V1606Z" />
<glyph unicode="&#xcf;" glyph-name="Idieresis" horiz-adv-x="752" d="M78 0V86H104Q139 86 169 91T223 111T259 156T272 233V1229Q272 1277 259 1306T223 1350T170 1371T104 1376H78V1462H674V1376H647Q613 1376 582 1371T529 1351T493 1306T479 1229V233Q479
185 492 156T528 112T582 91T647 86H674V0H78ZM73 1747Q73 1779 81 1801T103 1836T136 1856T177 1862Q199 1862 218 1856T251 1837T274 1801T282 1747Q282 1716 274 1694T252 1658T218 1638T177 1632Q132 1632 103 1658T73 1747ZM462 1747Q462 1779 470 1801T492
1836T525 1856T566 1862Q588 1862 607 1856T640 1837T663 1801T671 1747Q671 1716 663 1694T641 1658T607 1638T566 1632Q521 1632 492 1658T462 1747Z" />
<glyph unicode="&#xd0;" glyph-name="Eth" horiz-adv-x="1489" d="M78 815H272V1237Q272 1282 259 1309T222 1352T169 1371T104 1376H78V1462H705Q863 1462 987 1414T1196 1272T1327 1043T1372 733Q1372 565 1330 430T1205 199T997 52T705 0H78V86H104Q139 86
169 91T223 111T259 156T272 233V715H78V815ZM657 104Q779 104 870 145T1023 267T1114 464T1145 733Q1145 885 1115 1002T1024 1198T872 1319T659 1360H479V815H827V715H479V104H657Z" />
<glyph unicode="&#xd1;" glyph-name="Ntilde" horiz-adv-x="1563" d="M1165 0L397 1180V233Q397 185 410 156T446 112T500 91T565 86H592V0H78V86H104Q139 86 169 91T223 111T259 156T272 233V1237Q272 1282 259 1309T222 1352T169 1371T104 1376H78V1462H453L1186
330V1237Q1186 1282 1173 1309T1136 1352T1083 1371T1018 1376H991V1462H1505V1376H1479Q1444 1376 1414 1371T1360 1351T1324 1306T1311 1229V0H1165ZM979 1712Q1009 1712 1027 1721T1056 1745T1071 1780T1079 1821H1171Q1168 1774 1155 1731T1115 1653T1050 1599T956
1579Q901 1579 857 1599T774 1643T702 1688T635 1708Q604 1708 586 1699T558 1675T542 1641T534 1600H442Q445 1647 458 1690T498 1767T564 1821T659 1841Q714 1841 758 1821T841 1777T913 1732T979 1712Z" />
<glyph unicode="&#xd2;" glyph-name="Ograve" horiz-adv-x="1520" d="M1403 733Q1403 564 1361 425T1237 187T1035 34T760 -20Q597 -20 476 34T275 187T155 425T115 735Q115 905 155 1043T275 1280T477 1431T762 1485Q917 1485 1036 1432T1237 1280T1361 1043T1403
733ZM342 733Q342 581 364 462T437 260T566 134T760 90Q874 90 953 133T1082 259T1154 461T1176 733Q1176 885 1154 1004T1083 1206T955 1331T762 1374Q648 1374 568 1331T438 1206T365 1005T342 733ZM861 1579H783Q742 1607 694 1648T601 1734T519 1818T463 1886V1907H682Q698
1873 719 1833T765 1752T814 1673T861 1606V1579Z" />
<glyph unicode="&#xd3;" glyph-name="Oacute" horiz-adv-x="1520" d="M1403 733Q1403 564 1361 425T1237 187T1035 34T760 -20Q597 -20 476 34T275 187T155 425T115 735Q115 905 155 1043T275 1280T477 1431T762 1485Q917 1485 1036 1432T1237 1280T1361 1043T1403
733ZM342 733Q342 581 364 462T437 260T566 134T760 90Q874 90 953 133T1082 259T1154 461T1176 733Q1176 885 1154 1004T1083 1206T955 1331T762 1374Q648 1374 568 1331T438 1206T365 1005T342 733ZM649 1606Q672 1635 696 1673T744 1751T789 1832T827 1907H1046V1886Q1027
1859 990 1819T908 1734T816 1649T727 1579H649V1606Z" />
<glyph unicode="&#xd4;" glyph-name="Ocircumflex" horiz-adv-x="1520" d="M1403 733Q1403 564 1361 425T1237 187T1035 34T760 -20Q597 -20 476 34T275 187T155 425T115 735Q115 905 155 1043T275 1280T477 1431T762 1485Q917 1485 1036 1432T1237 1280T1361
1043T1403 733ZM342 733Q342 581 364 462T437 260T566 134T760 90Q874 90 953 133T1082 259T1154 461T1176 733Q1176 885 1154 1004T1083 1206T955 1331T762 1374Q648 1374 568 1331T438 1206T365 1005T342 733ZM459 1606Q483 1635 512 1673T569 1751T623 1832T664
1907H858Q874 1873 899 1833T952 1752T1010 1673T1063 1606V1579H983Q924 1613 865 1663T760 1763Q713 1714 655 1664T539 1579H459V1606Z" />
<glyph unicode="&#xd5;" glyph-name="Otilde" horiz-adv-x="1520" d="M1403 733Q1403 564 1361 425T1237 187T1035 34T760 -20Q597 -20 476 34T275 187T155 425T115 735Q115 905 155 1043T275 1280T477 1431T762 1485Q917 1485 1036 1432T1237 1280T1361 1043T1403
733ZM342 733Q342 581 364 462T437 260T566 134T760 90Q874 90 953 133T1082 259T1154 461T1176 733Q1176 885 1154 1004T1083 1206T955 1331T762 1374Q648 1374 568 1331T438 1206T365 1005T342 733ZM918 1712Q948 1712 966 1721T995 1745T1010 1780T1018 1821H1110Q1107
1774 1094 1731T1054 1653T989 1599T895 1579Q840 1579 796 1599T713 1643T641 1688T574 1708Q543 1708 525 1699T497 1675T481 1641T473 1600H381Q384 1647 397 1690T437 1767T503 1821T598 1841Q653 1841 697 1821T780 1777T852 1732T918 1712Z" />
<glyph unicode="&#xd6;" glyph-name="Odieresis" horiz-adv-x="1520" d="M1403 733Q1403 564 1361 425T1237 187T1035 34T760 -20Q597 -20 476 34T275 187T155 425T115 735Q115 905 155 1043T275 1280T477 1431T762 1485Q917 1485 1036 1432T1237 1280T1361 1043T1403
733ZM342 733Q342 581 364 462T437 260T566 134T760 90Q874 90 953 133T1082 259T1154 461T1176 733Q1176 885 1154 1004T1083 1206T955 1331T762 1374Q648 1374 568 1331T438 1206T365 1005T342 733ZM455 1747Q455 1779 463 1801T485 1836T518 1856T559 1862Q581
1862 600 1856T633 1837T656 1801T664 1747Q664 1716 656 1694T634 1658T600 1638T559 1632Q514 1632 485 1658T455 1747ZM844 1747Q844 1779 852 1801T874 1836T907 1856T948 1862Q970 1862 989 1856T1022 1837T1045 1801T1053 1747Q1053 1716 1045 1694T1023
1658T989 1638T948 1632Q903 1632 874 1658T844 1747Z" />
<glyph unicode="&#xd7;" glyph-name="multiply" horiz-adv-x="1145" d="M571 647L231 307L145 395L485 735L145 1073L231 1159L571 819L911 1161L997 1073L657 733L997 393L911 307L571 647Z" />
<glyph unicode="&#xd8;" glyph-name="Oslash" horiz-adv-x="1520" d="M1163 1354Q1281 1257 1342 1099T1403 733Q1403 564 1361 425T1237 187T1035 34T760 -20Q667 -20 588 -3T442 49L371 -82H250L354 106Q233 204 174 364T115 735Q115 905 155 1043T275 1280T477
1431T762 1485Q853 1485 931 1466T1075 1411L1151 1546H1270L1163 1354ZM342 733Q342 578 364 460T438 258L1010 1292Q916 1374 762 1374Q648 1374 568 1331T438 1206T365 1005T342 733ZM1176 733Q1176 886 1154 1004T1081 1206L510 170Q605 90 760 90Q874 90 953
133T1082 259T1154 461T1176 733Z" />
<glyph unicode="&#xd9;" glyph-name="Ugrave" horiz-adv-x="1468" d="M741 -20Q620 -20 524 5T362 86T260 229T225 442V1237Q225 1282 212 1309T175 1352T122 1371T57 1376H31V1462H627V1376H600Q566 1376 535 1371T482 1351T446 1306T432 1229V430Q432 341 457
279T528 177T636 120T774 102Q863 102 927 126T1034 192T1097 293T1118 422V1237Q1118 1282 1105 1309T1068 1352T1015 1371T950 1376H924V1462H1438V1376H1411Q1377 1376 1346 1371T1293 1351T1257 1306T1243 1229V418Q1243 316 1211 235T1115 97T957 10T741 -20ZM852
1579H774Q733 1607 685 1648T592 1734T510 1818T454 1886V1907H673Q689 1873 710 1833T756 1752T805 1673T852 1606V1579Z" />
<glyph unicode="&#xda;" glyph-name="Uacute" horiz-adv-x="1468" d="M741 -20Q620 -20 524 5T362 86T260 229T225 442V1237Q225 1282 212 1309T175 1352T122 1371T57 1376H31V1462H627V1376H600Q566 1376 535 1371T482 1351T446 1306T432 1229V430Q432 341 457
279T528 177T636 120T774 102Q863 102 927 126T1034 192T1097 293T1118 422V1237Q1118 1282 1105 1309T1068 1352T1015 1371T950 1376H924V1462H1438V1376H1411Q1377 1376 1346 1371T1293 1351T1257 1306T1243 1229V418Q1243 316 1211 235T1115 97T957 10T741 -20ZM649
1606Q672 1635 696 1673T744 1751T789 1832T827 1907H1046V1886Q1027 1859 990 1819T908 1734T816 1649T727 1579H649V1606Z" />
<glyph unicode="&#xdb;" glyph-name="Ucircumflex" horiz-adv-x="1468" d="M741 -20Q620 -20 524 5T362 86T260 229T225 442V1237Q225 1282 212 1309T175 1352T122 1371T57 1376H31V1462H627V1376H600Q566 1376 535 1371T482 1351T446 1306T432 1229V430Q432 341
457 279T528 177T636 120T774 102Q863 102 927 126T1034 192T1097 293T1118 422V1237Q1118 1282 1105 1309T1068 1352T1015 1371T950 1376H924V1462H1438V1376H1411Q1377 1376 1346 1371T1293 1351T1257 1306T1243 1229V418Q1243 316 1211 235T1115 97T957 10T741
-20ZM471 1606Q495 1635 524 1673T581 1751T635 1832T676 1907H870Q886 1873 911 1833T964 1752T1022 1673T1075 1606V1579H995Q936 1613 877 1663T772 1763Q725 1714 667 1664T551 1579H471V1606Z" />
<glyph unicode="&#xdc;" glyph-name="Udieresis" horiz-adv-x="1468" d="M741 -20Q620 -20 524 5T362 86T260 229T225 442V1237Q225 1282 212 1309T175 1352T122 1371T57 1376H31V1462H627V1376H600Q566 1376 535 1371T482 1351T446 1306T432 1229V430Q432 341
457 279T528 177T636 120T774 102Q863 102 927 126T1034 192T1097 293T1118 422V1237Q1118 1282 1105 1309T1068 1352T1015 1371T950 1376H924V1462H1438V1376H1411Q1377 1376 1346 1371T1293 1351T1257 1306T1243 1229V418Q1243 316 1211 235T1115 97T957 10T741
-20ZM477 1747Q477 1779 485 1801T507 1836T540 1856T581 1862Q603 1862 622 1856T655 1837T678 1801T686 1747Q686 1716 678 1694T656 1658T622 1638T581 1632Q536 1632 507 1658T477 1747ZM866 1747Q866 1779 874 1801T896 1836T929 1856T970 1862Q992 1862 1011
1856T1044 1837T1067 1801T1075 1747Q1075 1716 1067 1694T1045 1658T1011 1638T970 1632Q925 1632 896 1658T866 1747Z" />
<glyph unicode="&#xdd;" glyph-name="Yacute" horiz-adv-x="1280" d="M326 0V86H373Q407 86 437 90T491 109T527 150T541 223V610L162 1268Q145 1297 130 1317T99 1351T62 1370T16 1376H-10V1462H553V1376H477Q449 1376 432 1371T404 1357T391 1336T387 1311Q387
1282 399 1253T424 1202L575 928Q611 865 636 804T678 694Q687 716 700 743T730 800T765 863T801 928L932 1163Q952 1198 960 1229T969 1286Q969 1331 937 1353T846 1376H786V1462H1286V1376H1262Q1240 1376 1221 1369T1181 1343T1140 1294T1092 1217L748 610V233Q748
185 761 156T797 112T850 91T915 86H963V0H326ZM567 1606Q590 1635 614 1673T662 1751T707 1832T745 1907H964V1886Q945 1859 908 1819T826 1734T734 1649T645 1579H567V1606Z" />
<glyph unicode="&#xde;" glyph-name="Thorn" horiz-adv-x="1237" d="M78 0V86H104Q139 86 169 91T223 111T259 156T272 233V1229Q272 1277 259 1306T223 1350T170 1371T104 1376H78V1462H694V1376H647Q613 1376 582 1371T529 1351T493 1306T479 1229V1167H653Q911
1167 1034 1064T1157 760Q1157 669 1129 588T1035 446T865 350T608 315H479V233Q479 185 492 156T528 112T582 91T647 86H694V0H78ZM479 412H588Q681 412 747 428T855 484T916 589T936 752Q936 838 919 898T864 996T766 1051T618 1069H479V412Z" />
<glyph unicode="&#xdf;" glyph-name="germandbls" horiz-adv-x="1325" d="M887 78Q962 78 1010 124T1059 264Q1059 298 1052 327T1022 383T961 437T860 494Q796 526 747 557T666 626T617 712T600 825Q600 887 620 938T682 1025T787 1082T938 1102Q938 1199 924
1268T879 1383T800 1449T682 1470Q620 1470 574 1450T496 1394T450 1305T434 1188V0H47V86H74Q109 86 139 91T192 111T228 156T242 233V1001H76V1098H242V1159Q242 1272 276 1349T369 1473T509 1542T684 1563Q812 1563 897 1527T1033 1420T1107 1245T1130 1006H981Q872
1006 821 965T770 840Q770 809 780 784T815 735T881 688T983 635Q1060 600 1109 561T1186 478T1224 390T1235 299Q1235 221 1211 161T1143 61T1034 1T889 -20Q817 -20 758 -7T657 34T592 102T569 197Q569 238 581 265T611 309T649 331T686 338Q686 284 696 237T730
155T792 99T887 78Z" />
<glyph unicode="&#xe0;" glyph-name="agrave" horiz-adv-x="1153" d="M301 297Q301 201 341 154T467 106Q529 106 579 126T665 183T720 273T739 391V557L608 551Q521 547 463 530T368 481T317 403T301 297ZM549 1016Q490 1016 454 1000T397 953T369 882T362 793Q277
793 233 822T188 922Q188 975 217 1012T296 1072T414 1107T557 1118Q651 1118 721 1100T838 1039T908 930T932 764V233Q932 190 939 162T961 117T1000 93T1059 86H1065V0H788L756 176H739Q707 133 677 97T611 35T530 -5T420 -20Q352 -20 294 -1T193 59T126 161T102
307Q102 470 218 549T569 635L739 641V764Q739 819 733 865T707 945T650 997T549 1016ZM923 1241H845Q804 1269 756 1310T663 1396T581 1480T525 1548V1569H744Q760 1535 781 1495T827 1414T876 1335T923 1268V1241Z" />
<glyph unicode="&#xe1;" glyph-name="aacute" horiz-adv-x="1153" d="M301 297Q301 201 341 154T467 106Q529 106 579 126T665 183T720 273T739 391V557L608 551Q521 547 463 530T368 481T317 403T301 297ZM549 1016Q490 1016 454 1000T397 953T369 882T362 793Q277
793 233 822T188 922Q188 975 217 1012T296 1072T414 1107T557 1118Q651 1118 721 1100T838 1039T908 930T932 764V233Q932 190 939 162T961 117T1000 93T1059 86H1065V0H788L756 176H739Q707 133 677 97T611 35T530 -5T420 -20Q352 -20 294 -1T193 59T126 161T102
307Q102 470 218 549T569 635L739 641V764Q739 819 733 865T707 945T650 997T549 1016ZM471 1268Q494 1297 518 1335T566 1413T611 1494T649 1569H868V1548Q849 1521 812 1481T730 1396T638 1311T549 1241H471V1268Z" />
<glyph unicode="&#xe2;" glyph-name="acircumflex" horiz-adv-x="1153" d="M301 297Q301 201 341 154T467 106Q529 106 579 126T665 183T720 273T739 391V557L608 551Q521 547 463 530T368 481T317 403T301 297ZM549 1016Q490 1016 454 1000T397 953T369 882T362
793Q277 793 233 822T188 922Q188 975 217 1012T296 1072T414 1107T557 1118Q651 1118 721 1100T838 1039T908 930T932 764V233Q932 190 939 162T961 117T1000 93T1059 86H1065V0H788L756 176H739Q707 133 677 97T611 35T530 -5T420 -20Q352 -20 294 -1T193 59T126
161T102 307Q102 470 218 549T569 635L739 641V764Q739 819 733 865T707 945T650 997T549 1016ZM517 1268Q541 1297 570 1335T627 1413T681 1494T722 1569H916Q932 1535 957 1495T1010 1414T1068 1335T1121 1268V1241H1041Q982 1275 923 1325T818 1425Q771 1376
713 1326T597 1241H517V1268Z" />
<glyph unicode="&#xe3;" glyph-name="atilde" horiz-adv-x="1153" d="M301 297Q301 201 341 154T467 106Q529 106 579 126T665 183T720 273T739 391V557L608 551Q521 547 463 530T368 481T317 403T301 297ZM549 1016Q490 1016 454 1000T397 953T369 882T362 793Q277
793 233 822T188 922Q188 975 217 1012T296 1072T414 1107T557 1118Q651 1118 721 1100T838 1039T908 930T932 764V233Q932 190 939 162T961 117T1000 93T1059 86H1065V0H788L756 176H739Q707 133 677 97T611 35T530 -5T420 -20Q352 -20 294 -1T193 59T126 161T102
307Q102 470 218 549T569 635L739 641V764Q739 819 733 865T707 945T650 997T549 1016ZM999 1374Q1029 1374 1047 1383T1076 1407T1091 1442T1099 1483H1191Q1188 1436 1175 1393T1135 1315T1070 1261T976 1241Q921 1241 877 1261T794 1305T722 1350T655 1370Q624
1370 606 1361T578 1337T562 1303T554 1262H462Q465 1309 478 1352T518 1429T584 1483T679 1503Q734 1503 778 1483T861 1439T933 1394T999 1374Z" />
<glyph unicode="&#xe4;" glyph-name="adieresis" horiz-adv-x="1153" d="M301 297Q301 201 341 154T467 106Q529 106 579 126T665 183T720 273T739 391V557L608 551Q521 547 463 530T368 481T317 403T301 297ZM549 1016Q490 1016 454 1000T397 953T369 882T362
793Q277 793 233 822T188 922Q188 975 217 1012T296 1072T414 1107T557 1118Q651 1118 721 1100T838 1039T908 930T932 764V233Q932 190 939 162T961 117T1000 93T1059 86H1065V0H788L756 176H739Q707 133 677 97T611 35T530 -5T420 -20Q352 -20 294 -1T193 59T126
161T102 307Q102 470 218 549T569 635L739 641V764Q739 819 733 865T707 945T650 997T549 1016ZM513 1409Q513 1441 521 1463T543 1498T576 1518T617 1524Q639 1524 658 1518T691 1499T714 1463T722 1409Q722 1378 714 1356T692 1320T658 1300T617 1294Q572 1294
543 1320T513 1409ZM902 1409Q902 1441 910 1463T932 1498T965 1518T1006 1524Q1028 1524 1047 1518T1080 1499T1103 1463T1111 1409Q1111 1378 1103 1356T1081 1320T1047 1300T1006 1294Q961 1294 932 1320T902 1409Z" />
<glyph unicode="&#xe5;" glyph-name="aring" horiz-adv-x="1153" d="M301 297Q301 201 341 154T467 106Q529 106 579 126T665 183T720 273T739 391V557L608 551Q521 547 463 530T368 481T317 403T301 297ZM549 1016Q490 1016 454 1000T397 953T369 882T362 793Q277
793 233 822T188 922Q188 975 217 1012T296 1072T414 1107T557 1118Q651 1118 721 1100T838 1039T908 930T932 764V233Q932 190 939 162T961 117T1000 93T1059 86H1065V0H788L756 176H739Q707 133 677 97T611 35T530 -5T420 -20Q352 -20 294 -1T193 59T126 161T102
307Q102 470 218 549T569 635L739 641V764Q739 819 733 865T707 945T650 997T549 1016ZM819 1444Q819 1389 800 1348T748 1278T669 1236T573 1221Q522 1221 477 1235T399 1278T346 1347T327 1444Q327 1498 346 1540T398 1610T477 1652T573 1667Q624 1667 669 1653T747
1610T800 1540T819 1444ZM708 1444Q708 1477 698 1500T669 1538T626 1560T573 1567Q545 1567 521 1560T478 1539T449 1501T438 1444Q438 1411 448 1388T477 1350T520 1328T573 1321Q601 1321 625 1328T668 1349T697 1387T708 1444Z" />
<glyph unicode="&#xe6;" glyph-name="ae" horiz-adv-x="1722" d="M301 297Q301 201 341 154T467 106Q529 106 579 126T665 183T720 273T739 391V514V541V557L608 551Q521 547 463 530T368 481T317 403T301 297ZM1190 1008Q1075 1008 1014 916T942 645H1413Q1413
726 1401 793T1363 908T1295 982T1190 1008ZM1221 -20Q1071 -20 967 39T805 213Q786 167 752 125T670 51T559 -1T420 -20Q352 -20 294 -1T193 59T126 161T102 307Q102 470 218 549T569 635L739 641V764Q739 819 733 865T707 945T650 997T549 1016Q490 1016 454
1000T397 953T369 882T362 793Q277 793 233 822T188 922Q188 975 217 1012T296 1072T414 1107T557 1118Q673 1118 752 1089T877 993Q991 1118 1194 1118Q1293 1118 1372 1087T1506 995T1590 842T1620 629V535H938Q940 423 959 343T1017 210T1115 134T1255 109Q1300
109 1342 120T1420 150T1486 196T1536 252Q1550 246 1562 227T1575 182Q1575 151 1553 116T1487 50T1377 0T1221 -20Z" />
<glyph unicode="&#xe7;" glyph-name="ccedilla" horiz-adv-x="1008" d="M580 -20Q478 -20 392 11T244 111T148 285T113 543Q113 707 147 817T243 995T388 1090T569 1118Q633 1118 696 1106T811 1067T894 1002T926 909Q926 838 880 809T743 780Q743 828 735 871T708
946T655 997T569 1016Q510 1016 463 994T381 918T329 773T311 545Q311 327 383 220T621 113Q716 113 787 153T893 256Q908 244 918 224T928 176Q928 141 906 106T841 43T732 -2T580 -20ZM784 -258Q784 -367 715 -429T514 -492Q498 -492 478 -491T437 -486T395 -479T356
-469V-365Q393 -373 430 -377T495 -381Q554 -381 587 -350T620 -266Q620 -206 577 -176T466 -141L509 18H606L585 -70Q685 -78 734 -127T784 -258Z" />
<glyph unicode="&#xe8;" glyph-name="egrave" horiz-adv-x="1096" d="M563 1008Q449 1008 388 916T315 645H786Q786 726 774 793T736 908T668 982T563 1008ZM588 -20Q477 -20 389 17T239 127T146 303T113 541Q113 828 231 973T567 1118Q666 1118 745 1087T879
995T963 842T993 629V535H311Q313 423 333 343T392 210T487 134T616 109Q669 109 714 121T797 153T862 198T909 252Q923 246 935 227T948 182Q948 151 926 116T859 50T747 0T588 -20ZM939 1241H861Q820 1269 772 1310T679 1396T597 1480T541 1548V1569H760Q776
1535 797 1495T843 1414T892 1335T939 1268V1241Z" />
<glyph unicode="&#xe9;" glyph-name="eacute" horiz-adv-x="1096" d="M563 1008Q449 1008 388 916T315 645H786Q786 726 774 793T736 908T668 982T563 1008ZM588 -20Q477 -20 389 17T239 127T146 303T113 541Q113 828 231 973T567 1118Q666 1118 745 1087T879
995T963 842T993 629V535H311Q313 423 333 343T392 210T487 134T616 109Q669 109 714 121T797 153T862 198T909 252Q923 246 935 227T948 182Q948 151 926 116T859 50T747 0T588 -20ZM473 1268Q496 1297 520 1335T568 1413T613 1494T651 1569H870V1548Q851 1521
814 1481T732 1396T640 1311T551 1241H473V1268Z" />
<glyph unicode="&#xea;" glyph-name="ecircumflex" horiz-adv-x="1096" d="M563 1008Q449 1008 388 916T315 645H786Q786 726 774 793T736 908T668 982T563 1008ZM588 -20Q477 -20 389 17T239 127T146 303T113 541Q113 828 231 973T567 1118Q666 1118 745 1087T879
995T963 842T993 629V535H311Q313 423 333 343T392 210T487 134T616 109Q669 109 714 121T797 153T862 198T909 252Q923 246 935 227T948 182Q948 151 926 116T859 50T747 0T588 -20ZM511 1268Q535 1297 564 1335T621 1413T675 1494T716 1569H910Q926 1535 951
1495T1004 1414T1062 1335T1115 1268V1241H1035Q976 1275 917 1325T812 1425Q765 1376 707 1326T591 1241H511V1268Z" />
<glyph unicode="&#xeb;" glyph-name="edieresis" horiz-adv-x="1096" d="M563 1008Q449 1008 388 916T315 645H786Q786 726 774 793T736 908T668 982T563 1008ZM588 -20Q477 -20 389 17T239 127T146 303T113 541Q113 828 231 973T567 1118Q666 1118 745 1087T879
995T963 842T993 629V535H311Q313 423 333 343T392 210T487 134T616 109Q669 109 714 121T797 153T862 198T909 252Q923 246 935 227T948 182Q948 151 926 116T859 50T747 0T588 -20ZM509 1409Q509 1441 517 1463T539 1498T572 1518T613 1524Q635 1524 654 1518T687
1499T710 1463T718 1409Q718 1378 710 1356T688 1320T654 1300T613 1294Q568 1294 539 1320T509 1409ZM898 1409Q898 1441 906 1463T928 1498T961 1518T1002 1524Q1024 1524 1043 1518T1076 1499T1099 1463T1107 1409Q1107 1378 1099 1356T1077 1320T1043 1300T1002
1294Q957 1294 928 1320T898 1409Z" />
<glyph unicode="&#xec;" glyph-name="igrave" horiz-adv-x="655" d="M74 86Q108 86 138 90T192 109T228 150T242 223V872Q242 917 229 944T192 987T139 1007T74 1012H68V1098H434V233Q434 185 447 156T483 112T537 91T602 86H629V0H47V86H74ZM436 1241H358Q317
1269 269 1310T176 1396T94 1480T38 1548V1569H257Q273 1535 294 1495T340 1414T389 1335T436 1268V1241Z" />
<glyph unicode="&#xed;" glyph-name="iacute" horiz-adv-x="655" d="M74 86Q108 86 138 90T192 109T228 150T242 223V872Q242 917 229 944T192 987T139 1007T74 1012H68V1098H434V233Q434 185 447 156T483 112T537 91T602 86H629V0H47V86H74ZM240 1268Q263 1297
287 1335T335 1413T380 1494T418 1569H637V1548Q618 1521 581 1481T499 1396T407 1311T318 1241H240V1268Z" />
<glyph unicode="&#xee;" glyph-name="icircumflex" horiz-adv-x="655" d="M74 86Q108 86 138 90T192 109T228 150T242 223V872Q242 917 229 944T192 987T139 1007T74 1012H68V1098H434V233Q434 185 447 156T483 112T537 91T602 86H629V0H47V86H74ZM22 1268Q46
1297 75 1335T132 1413T186 1494T227 1569H421Q437 1535 462 1495T515 1414T573 1335T626 1268V1241H546Q487 1275 428 1325T323 1425Q276 1376 218 1326T102 1241H22V1268Z" />
<glyph unicode="&#xef;" glyph-name="idieresis" horiz-adv-x="655" d="M74 86Q108 86 138 90T192 109T228 150T242 223V872Q242 917 229 944T192 987T139 1007T74 1012H68V1098H434V233Q434 185 447 156T483 112T537 91T602 86H629V0H47V86H74ZM18 1409Q18 1441
26 1463T48 1498T81 1518T122 1524Q144 1524 163 1518T196 1499T219 1463T227 1409Q227 1378 219 1356T197 1320T163 1300T122 1294Q77 1294 48 1320T18 1409ZM407 1409Q407 1441 415 1463T437 1498T470 1518T511 1524Q533 1524 552 1518T585 1499T608 1463T616
1409Q616 1378 608 1356T586 1320T552 1300T511 1294Q466 1294 437 1320T407 1409Z" />
<glyph unicode="&#xf0;" glyph-name="eth" horiz-adv-x="1182" d="M307 1559Q401 1536 491 1499T662 1407L926 1561V1444L745 1341Q817 1281 877 1204T979 1032T1045 829T1069 596Q1069 284 947 132T588 -20Q477 -20 389 12T240 111T146 276T113 510Q113 776 234
906T594 1036Q662 1036 720 1022T829 983Q808 1051 755 1126T623 1270L367 1124V1239L539 1337Q488 1371 430 1399T307 1448V1559ZM311 510Q311 405 326 326T374 194T461 113T592 86Q669 86 722 113T808 193T855 326T870 510Q870 614 855 692T807 823T721 902T590
928Q513 928 460 902T374 824T326 693T311 510Z" />
<glyph unicode="&#xf1;" glyph-name="ntilde" horiz-adv-x="1321" d="M608 86V0H57V86H74Q109 86 139 91T192 111T228 156T242 233V872Q242 917 229 944T192 987T139 1007T74 1012H68V1098H399L426 932H436Q468 989 503 1025T578 1082T662 1110T756 1118Q837 1118
900 1095T1008 1023T1076 898T1100 717V233Q1100 185 1111 156T1144 112T1194 91T1257 86H1264V0H907V707Q907 774 895 826T857 914T787 968T682 987Q612 987 565 960T488 887T447 781T434 655V223Q434 178 447 151T484 109T537 91T602 86H608ZM842 1374Q872 1374
890 1383T919 1407T934 1442T942 1483H1034Q1031 1436 1018 1393T978 1315T913 1261T819 1241Q764 1241 720 1261T637 1305T565 1350T498 1370Q467 1370 449 1361T421 1337T405 1303T397 1262H305Q308 1309 321 1352T361 1429T427 1483T522 1503Q577 1503 621 1483T704
1439T776 1394T842 1374Z" />
<glyph unicode="&#xf2;" glyph-name="ograve" horiz-adv-x="1182" d="M1069 551Q1069 262 947 121T588 -20Q477 -20 389 15T240 121T146 299T113 551Q113 838 234 978T594 1118Q705 1118 793 1084T942 979T1036 802T1069 551ZM311 551Q311 437 326 350T374 205T461
116T592 86Q669 86 722 116T808 204T855 350T870 551Q870 665 855 751T807 894T721 981T590 1010Q513 1010 460 981T374 895T326 751T311 551ZM952 1241H874Q833 1269 785 1310T692 1396T610 1480T554 1548V1569H773Q789 1535 810 1495T856 1414T905 1335T952 1268V1241Z"
/>
<glyph unicode="&#xf3;" glyph-name="oacute" horiz-adv-x="1182" d="M1069 551Q1069 262 947 121T588 -20Q477 -20 389 15T240 121T146 299T113 551Q113 838 234 978T594 1118Q705 1118 793 1084T942 979T1036 802T1069 551ZM311 551Q311 437 326 350T374 205T461
116T592 86Q669 86 722 116T808 204T855 350T870 551Q870 665 855 751T807 894T721 981T590 1010Q513 1010 460 981T374 895T326 751T311 551ZM512 1268Q535 1297 559 1335T607 1413T652 1494T690 1569H909V1548Q890 1521 853 1481T771 1396T679 1311T590 1241H512V1268Z"
/>
<glyph unicode="&#xf4;" glyph-name="ocircumflex" horiz-adv-x="1182" d="M1069 551Q1069 262 947 121T588 -20Q477 -20 389 15T240 121T146 299T113 551Q113 838 234 978T594 1118Q705 1118 793 1084T942 979T1036 802T1069 551ZM311 551Q311 437 326 350T374
205T461 116T592 86Q669 86 722 116T808 204T855 350T870 551Q870 665 855 751T807 894T721 981T590 1010Q513 1010 460 981T374 895T326 751T311 551ZM540 1268Q564 1297 593 1335T650 1413T704 1494T745 1569H939Q955 1535 980 1495T1033 1414T1091 1335T1144
1268V1241H1064Q1005 1275 946 1325T841 1425Q794 1376 736 1326T620 1241H540V1268Z" />
<glyph unicode="&#xf5;" glyph-name="otilde" horiz-adv-x="1182" d="M1069 551Q1069 262 947 121T588 -20Q477 -20 389 15T240 121T146 299T113 551Q113 838 234 978T594 1118Q705 1118 793 1084T942 979T1036 802T1069 551ZM311 551Q311 437 326 350T374 205T461
116T592 86Q669 86 722 116T808 204T855 350T870 551Q870 665 855 751T807 894T721 981T590 1010Q513 1010 460 981T374 895T326 751T311 551ZM1013 1374Q1043 1374 1061 1383T1090 1407T1105 1442T1113 1483H1205Q1202 1436 1189 1393T1149 1315T1084 1261T990
1241Q935 1241 891 1261T808 1305T736 1350T669 1370Q638 1370 620 1361T592 1337T576 1303T568 1262H476Q479 1309 492 1352T532 1429T598 1483T693 1503Q748 1503 792 1483T875 1439T947 1394T1013 1374Z" />
<glyph unicode="&#xf6;" glyph-name="odieresis" horiz-adv-x="1182" d="M1069 551Q1069 262 947 121T588 -20Q477 -20 389 15T240 121T146 299T113 551Q113 838 234 978T594 1118Q705 1118 793 1084T942 979T1036 802T1069 551ZM311 551Q311 437 326 350T374
205T461 116T592 86Q669 86 722 116T808 204T855 350T870 551Q870 665 855 751T807 894T721 981T590 1010Q513 1010 460 981T374 895T326 751T311 551ZM540 1409Q540 1441 548 1463T570 1498T603 1518T644 1524Q666 1524 685 1518T718 1499T741 1463T749 1409Q749
1378 741 1356T719 1320T685 1300T644 1294Q599 1294 570 1320T540 1409ZM929 1409Q929 1441 937 1463T959 1498T992 1518T1033 1524Q1055 1524 1074 1518T1107 1499T1130 1463T1138 1409Q1138 1378 1130 1356T1108 1320T1074 1300T1033 1294Q988 1294 959 1320T929
1409Z" />
<glyph unicode="&#xf7;" glyph-name="divide" horiz-adv-x="1145" d="M1012 672H133V793H1012V672ZM469 1120Q469 1152 477 1174T499 1209T532 1227T573 1233Q595 1233 614 1228T647 1209T670 1174T678 1120Q678 1089 670 1068T648 1033T614 1014T573 1008Q551
1008 532 1013T499 1032T477 1067T469 1120ZM469 344Q469 376 477 398T499 433T532 451T573 457Q595 457 614 452T647 433T670 398T678 344Q678 313 670 291T648 256T614 237T573 231Q528 231 499 256T469 344Z" />
<glyph unicode="&#xf8;" glyph-name="oslash" horiz-adv-x="1182" d="M930 991Q998 922 1033 813T1069 551Q1069 262 947 121T588 -20Q517 -20 455 -6T342 37L268 -82H147L258 98Q187 170 150 281T113 551Q113 838 234 978T594 1118Q668 1118 731 1102T848 1055L926
1180H1044L930 991ZM311 551Q311 457 321 382T352 250L776 936Q708 1010 590 1010Q513 1010 460 981T374 895T326 751T311 551ZM870 551Q870 728 834 836L412 152Q444 120 488 103T592 86Q669 86 722 116T808 204T855 350T870 551Z" />
<glyph unicode="&#xf9;" glyph-name="ugrave" horiz-adv-x="1300" d="M1079 223Q1079 178 1092 151T1129 109T1182 91T1247 86H1253V0H928L901 166H891Q860 108 823 72T743 16T655 -12T559 -20Q478 -20 415 3T309 75T244 200T221 381V872Q221 917 208 944T171
987T118 1007T53 1012H47V1098H414V391Q414 324 424 272T459 184T525 130T629 111Q697 111 745 135T825 202T872 307T887 442V864Q887 912 874 941T838 986T785 1007T719 1012H713V1098H1079V223ZM968 1241H890Q849 1269 801 1310T708 1396T626 1480T570 1548V1569H789Q805
1535 826 1495T872 1414T921 1335T968 1268V1241Z" />
<glyph unicode="&#xfa;" glyph-name="uacute" horiz-adv-x="1300" d="M1079 223Q1079 178 1092 151T1129 109T1182 91T1247 86H1253V0H928L901 166H891Q860 108 823 72T743 16T655 -12T559 -20Q478 -20 415 3T309 75T244 200T221 381V872Q221 917 208 944T171
987T118 1007T53 1012H47V1098H414V391Q414 324 424 272T459 184T525 130T629 111Q697 111 745 135T825 202T872 307T887 442V864Q887 912 874 941T838 986T785 1007T719 1012H713V1098H1079V223ZM541 1268Q564 1297 588 1335T636 1413T681 1494T719 1569H938V1548Q919
1521 882 1481T800 1396T708 1311T619 1241H541V1268Z" />
<glyph unicode="&#xfb;" glyph-name="ucircumflex" horiz-adv-x="1300" d="M1079 223Q1079 178 1092 151T1129 109T1182 91T1247 86H1253V0H928L901 166H891Q860 108 823 72T743 16T655 -12T559 -20Q478 -20 415 3T309 75T244 200T221 381V872Q221 917 208 944T171
987T118 1007T53 1012H47V1098H414V391Q414 324 424 272T459 184T525 130T629 111Q697 111 745 135T825 202T872 307T887 442V864Q887 912 874 941T838 986T785 1007T719 1012H713V1098H1079V223ZM342 1268Q366 1297 395 1335T452 1413T506 1494T547 1569H741Q757
1535 782 1495T835 1414T893 1335T946 1268V1241H866Q807 1275 748 1325T643 1425Q596 1376 538 1326T422 1241H342V1268Z" />
<glyph unicode="&#xfc;" glyph-name="udieresis" horiz-adv-x="1300" d="M1079 223Q1079 178 1092 151T1129 109T1182 91T1247 86H1253V0H928L901 166H891Q860 108 823 72T743 16T655 -12T559 -20Q478 -20 415 3T309 75T244 200T221 381V872Q221 917 208 944T171
987T118 1007T53 1012H47V1098H414V391Q414 324 424 272T459 184T525 130T629 111Q697 111 745 135T825 202T872 307T887 442V864Q887 912 874 941T838 986T785 1007T719 1012H713V1098H1079V223ZM348 1409Q348 1441 356 1463T378 1498T411 1518T452 1524Q474 1524
493 1518T526 1499T549 1463T557 1409Q557 1378 549 1356T527 1320T493 1300T452 1294Q407 1294 378 1320T348 1409ZM737 1409Q737 1441 745 1463T767 1498T800 1518T841 1524Q863 1524 882 1518T915 1499T938 1463T946 1409Q946 1378 938 1356T916 1320T882 1300T841
1294Q796 1294 767 1320T737 1409Z" />
<glyph unicode="&#xfd;" glyph-name="yacute" horiz-adv-x="1157" d="M1157 1098V1012H1151Q1121 1012 1100 1006T1061 981T1028 932T995 852L684 -8Q648 -107 616 -182T549 -310T473 -399T378 -455T256 -484T96 -492H78V-395Q182 -395 257 -364T386 -279T477
-152T539 8L160 903Q146 935 133 955T104 989T66 1007T14 1012H8V1098H500V1012H494Q432 1012 402 988T371 913Q371 896 374 879T387 838L537 473Q551 438 566 397T595 315T620 238T635 176H641Q652 221 671 285T717 424L854 823Q863 848 867 871T872 911Q872 964
839 988T737 1012H731V1098H1157ZM504 1268Q527 1297 551 1335T599 1413T644 1494T682 1569H901V1548Q882 1521 845 1481T763 1396T671 1311T582 1241H504V1268Z" />
<glyph unicode="&#xfe;" glyph-name="thorn" horiz-adv-x="1257" d="M692 987Q612 987 559 961T473 880T428 744T414 551Q414 444 427 362T473 224T559 140T694 111Q761 111 809 139T887 224T932 362T946 553Q946 771 887 879T692 987ZM1145 551Q1145 403 1118
295T1037 117T906 14T727 -20Q668 -20 620 -7T534 30T466 87T414 160H406Q408 107 410 61Q411 41 411 21T412 -17T413 -49T414 -72V-268Q414 -313 427 -340T464 -382T517 -401T582 -406H588V-492H37V-406H53Q87 -406 118 -401T171 -381T207 -336T221 -258V1331Q221
1376 208 1403T171 1446T118 1465T53 1470H37V1556H414V1180Q414 1145 413 1100T410 1012Q408 964 406 913H414Q437 960 466 998T533 1062T619 1103T727 1118Q828 1118 906 1085T1037 982T1117 805T1145 551Z" />
<glyph unicode="&#xff;" glyph-name="ydieresis" horiz-adv-x="1157" d="M1157 1098V1012H1151Q1121 1012 1100 1006T1061 981T1028 932T995 852L684 -8Q648 -107 616 -182T549 -310T473 -399T378 -455T256 -484T96 -492H78V-395Q182 -395 257 -364T386 -279T477
-152T539 8L160 903Q146 935 133 955T104 989T66 1007T14 1012H8V1098H500V1012H494Q432 1012 402 988T371 913Q371 896 374 879T387 838L537 473Q551 438 566 397T595 315T620 238T635 176H641Q652 221 671 285T717 424L854 823Q863 848 867 871T872 911Q872 964
839 988T737 1012H731V1098H1157ZM320 1409Q320 1441 328 1463T350 1498T383 1518T424 1524Q446 1524 465 1518T498 1499T521 1463T529 1409Q529 1378 521 1356T499 1320T465 1300T424 1294Q379 1294 350 1320T320 1409ZM709 1409Q709 1441 717 1463T739 1498T772
1518T813 1524Q835 1524 854 1518T887 1499T910 1463T918 1409Q918 1378 910 1356T888 1320T854 1300T813 1294Q768 1294 739 1320T709 1409Z" />
<glyph unicode="&#x2013;" glyph-name="endash" horiz-adv-x="1024" d="M1034 489H-10V610H1034V489Z" />
<glyph unicode="&#x2014;" glyph-name="emdash" horiz-adv-x="2048" d="M2058 489H-10V610H2058V489Z" />
<glyph unicode="&#x2018;" glyph-name="quoteleft" horiz-adv-x="512" d="M115 1063Q115 1128 133 1189T191 1302T296 1395T451 1464V1378Q350 1346 303 1300T256 1194Q256 1174 267 1161T295 1137T331 1116T367 1092T395 1058T406 1006Q406 947 368 916T272 885Q241
885 213 896T162 930T128 986T115 1063Z" />
<glyph unicode="&#x2019;" glyph-name="quoteright" horiz-adv-x="512" d="M397 1284Q397 1219 379 1158T321 1045T217 952T61 883V969Q162 1001 209 1047T256 1153Q256 1173 245 1186T217 1210T181 1231T145 1255T117 1289T106 1341Q106 1400 144 1431T240 1462Q272
1462 300 1451T350 1417T384 1361T397 1284Z" />
<glyph unicode="&#x201a;" glyph-name="quotesinglbase" horiz-adv-x="512" d="M397 86Q397 21 379 -40T321 -153T217 -246T61 -315V-229Q162 -197 209 -151T256 -45Q256 -25 245 -12T217 12T181 33T145 57T117 91T106 143Q106 202 144 233T240 264Q272 264 300
253T350 219T384 163T397 86Z" />
<glyph unicode="&#x201c;" glyph-name="quotedblleft" horiz-adv-x="922" d="M524 1063Q524 1128 542 1189T600 1302T705 1395T860 1464V1378Q760 1346 713 1300T666 1194Q666 1174 677 1161T704 1137T740 1116T776 1092T804 1058T815 1006Q815 947 777 916T682
885Q651 885 622 896T572 930T537 986T524 1063ZM115 1063Q115 1128 133 1189T191 1302T296 1395T451 1464V1378Q350 1346 303 1300T256 1194Q256 1174 267 1161T295 1137T331 1116T367 1092T395 1058T406 1006Q406 947 368 916T272 885Q241 885 213 896T162 930T128
986T115 1063Z" />
<glyph unicode="&#x201d;" glyph-name="quotedblright" horiz-adv-x="922" d="M397 1284Q397 1219 379 1158T321 1045T217 952T61 883V969Q162 1001 209 1047T256 1153Q256 1173 245 1186T217 1210T181 1231T145 1255T117 1289T106 1341Q106 1400 144 1431T240
1462Q272 1462 300 1451T350 1417T384 1361T397 1284ZM807 1284Q807 1219 789 1158T731 1045T627 952T471 883V969Q571 1001 618 1047T666 1153Q666 1173 655 1186T627 1210T591 1231T555 1255T527 1289T516 1341Q516 1400 554 1431T649 1462Q681 1462 709 1451T759
1417T794 1361T807 1284Z" />
<glyph unicode="&#x201e;" glyph-name="quotedblbase" horiz-adv-x="922" d="M397 86Q397 21 379 -40T321 -153T217 -246T61 -315V-229Q162 -197 209 -151T256 -45Q256 -25 245 -12T217 12T181 33T145 57T117 91T106 143Q106 202 144 233T240 264Q272 264 300
253T350 219T384 163T397 86ZM807 86Q807 21 789 -40T731 -153T627 -246T471 -315V-229Q571 -197 618 -151T666 -45Q666 -25 655 -12T627 12T591 33T555 57T527 91T516 143Q516 202 554 233T649 264Q681 264 709 253T759 219T794 163T807 86Z" />
<glyph unicode="&#x2022;" glyph-name="bullet" horiz-adv-x="741" d="M100 729Q100 813 120 870T177 961T263 1011T371 1026Q427 1026 476 1011T562 962T620 870T641 729Q641 645 620 589T562 497T476 447T371 432Q313 432 263 447T177 497T121 588T100 729Z" />
<glyph unicode="&#x2039;" glyph-name="guilsinglleft" horiz-adv-x="682" d="M133 586L446 942H549L342 553L549 164H446L133 520V586Z" />
<glyph unicode="&#x203a;" glyph-name="guilsinglright" horiz-adv-x="682" d="M551 520L238 164H135L342 553L135 942H238L551 586V520Z" />
</font>
</defs>
</svg>
